<?xml version="1.0" standalone="no"?>
<!DOCTYPE svg PUBLIC "-//W3C//DTD SVG 1.1//EN" "http://www.w3.org/Graphics/SVG/1.1/DTD/svg11.dtd" >
<svg xmlns="http://www.w3.org/2000/svg">
<metadata>
This is a custom SVG font generated by IcoMoon.
<iconset grid="16"></iconset>
</metadata>
<defs>
<font id="Icons" horiz-adv-x="512" >
<font-face units-per-em="512" ascent="480" descent="-32" />
<missing-glyph horiz-adv-x="512" />
<glyph unicode="&#xe000;" d="M 499.338,35.953L 358.336,176.83c 50.282,75.858, 42.064,179.11-24.81,245.952
			c-76.281,76.297-200.00,76.313-276.281,0.00c-76.313-76.297-76.313-200.032,0.00-276.297c 66.842-66.874, 170.029-75.123, 245.875-24.874
			l 140.938-140.97c0.00,0.00, 26.781-28.467, 55.28,0.00C 527.805,9.172, 499.338,35.953, 499.338,35.953z M 278.275,201.735
			c-45.718-45.719-120.064-45.719-165.782,0.00s-45.718,120.064,0.00,165.782c 45.718,45.719, 120.064,45.719, 165.782,0.00
			C 323.994,321.799, 323.994,247.454, 278.275,201.735z M 138.775,263.095l 117.219,0.00 l0.00,39.079 L 138.775,302.174 L 138.775,263.095 z"  />
<glyph unicode="&#xe001;" d="M 499.361,35.955L 358.327,176.829c 50.313,75.858, 42.064,179.11-24.81,245.952
			c-76.281,76.297-199.971,76.313-276.281,0.00c-76.314-76.294-76.314-200.029,0.00-276.327c 66.841-66.845, 170.029-75.094, 245.875-24.845
			l 140.938-140.966c0.00,0.00, 26.781-28.471, 55.312,0.00C 527.796,9.143, 499.361,35.955, 499.361,35.955z M 278.267,201.734
			c-45.718-45.719-120.064-45.719-165.782,0.00c-45.719,45.705-45.719,120.064,0.00,165.782c 45.718,45.719, 120.064,45.719, 165.782,0.00
			C 323.985,321.798, 323.985,247.439, 278.267,201.734z M 216.922,341.251l-39.094,0.00 l0.00-39.078 l-39.062,0.00 l0.00-39.079 l 39.062,0.00 l0.00-39.078 l 39.094,0.00 l0.00,39.078 
			l 39.063,0.00 l0.00,39.079 l-39.063,0.00 L 216.922,341.251 z"  />
<glyph unicode="&#xe002;" d="M 206.216,436.682C 174.748,468.167, 132.124,488.839, 92.437,476.275C 87.50,474.714, 103.50,431.088, 103.50,431.088l 47.968-21.11
	l 11.28-58.592l-17.091-17.049l-17.062-17.062l-58.563,11.267l-21.095,47.952c0.00,0.00-43.625,16.00-45.219,11.094
	c-12.531-39.702, 8.125-82.313, 39.626-113.811c 34.656-34.672, 85.782-42.406, 128.125-23.751l 245.031-268.374l 40.905-13.657
	l 27.315,27.312l 27.28,27.283l-13.657,40.938L 229.999,308.541C 248.623,350.884, 240.872,401.994, 206.216,436.682z M 471.50,8.493
	c-7.782-7.75-20.406-7.75-28.157,0.00c-7.782,7.782-7.782,20.374,0.00,28.157c 7.751,7.782, 20.375,7.782, 28.157,0.00
	C 479.25,28.867, 479.25,16.275, 471.50,8.493z"  />
<glyph unicode="&#xe003;" d="M 133.126,382.562c 23.187,0.00, 60.499-28.531, 93.437-53.687c 45.405-34.703, 92.342-70.562, 141.811-70.562
			c 90.97,0.00, 141.533,68.78, 143.626,71.702l-53.626,38.346c-1.372-1.814-33.654-44.423-90.00-44.423c-27.03,0.00-66.592,30.25-101.50,56.954
			c-43.312,33.062-88.125,67.296-133.748,67.296C 47.625,448.188, 1.907,389.656,0.00,387.157l 52.656-39.674
			C 52.938,347.845, 80.874,382.562, 133.126,382.562z M 368.374,194.188c-27.03,0.00-66.592,30.281-101.50,56.953
			c-43.312,33.079-88.125,67.312-133.748,67.312C 47.625,318.453, 1.907,259.906,0.00,257.422l 52.656-39.657
			c 0.282,0.346, 28.218,35.062, 80.471,35.062c 23.187,0.00, 60.499-28.548, 93.437-53.702c 45.405-34.688, 92.342-70.563, 141.811-70.563
			c 90.97,0.00, 141.533,68.812, 143.626,71.689l-53.626,38.358C 457.002,236.795, 424.72,194.188, 368.374,194.188z M 368.374,65.438
			c-27.03,0.00-66.592,30.25-101.50,56.938c-43.312,33.091-88.125,67.312-133.748,67.312c-85.501,0.00-131.219-58.53-133.126-61.001
			L 52.656,89.00c 0.282,0.343, 28.218,35.062, 80.471,35.062c 23.187,0.00, 60.499-28.563, 93.437-53.657
			c 45.405-34.717, 92.342-70.593, 141.811-70.593c 90.97,0.00, 141.533,68.813, 143.626,71.687l-53.626,38.346
			C 457.002,108.03, 424.72,65.438, 368.374,65.438z"  />
<glyph unicode="&#xe004;" d="M 256.00,448.00L0.00,0.00l 512.00,0.00 L 256.00,448.00z M 288.00,288.00l-16.00-160.00l-32.00,0.00 l-16.00,160.00L 288.00,288.00 z M 256.00,32.00c-17.687,0.00-32.00,14.313-32.00,32.00s 14.313,32.00, 32.00,32.00
	s 32.00-14.313, 32.00-32.00S 273.687,32.00, 256.00,32.00z"  />
<glyph unicode="&#xe005;" d="M0.00,287.992l0.00-127.984 l 64.00,0.00 l 160.00-128.00L 224.00,415.992 l-160.00-128.00L0.00,287.992 z M 317.095,302.133l-26.346-19.811
			c 18.655-12.627, 30.938-33.984, 30.938-58.237c0.00-24.266-12.282-45.639-30.938-58.266l 26.346-19.812
			c 22.31,18.812, 36.78,46.624, 36.78,78.077C 353.875,255.541, 339.404,283.336, 317.095,302.133z M 381.469,350.587l-25.968-19.549
			c 27.875-27.124, 45.219-64.999, 45.219-106.954c0.00-41.984-17.344-79.827-45.219-106.95l 25.968-19.533
			c 31.782,32.688, 51.469,77.28, 51.469,126.483C 432.938,273.304, 413.251,317.867, 381.469,350.587z M 444.845,398.242l-28.157-21.188
			c 37.22-40.202, 60.157-93.843, 60.157-152.969c0.00-59.14-22.938-112.765-60.157-152.95l 28.157-21.22
			C 486.467,96.072, 512.00,157.007, 512.00,224.085C 512.00,291.134, 486.467,352.072, 444.845,398.242z"  />
<glyph unicode="&#xe006;" d="M 128.00,287.992l0.00-127.984 l 64.00,0.00 l 160.00-128.00L 352.00,415.992 l-160.00-128.00L 128.00,287.992 z"  />
<glyph unicode="&#xe007;" d="M 64.062,287.992l0.00-127.984 l 64.00,0.00 l 160.00-128.00L 288.062,415.992 l-160.00-128.00L 64.062,287.992 z M 381.157,302.133l-26.346-19.811
			c 18.655-12.627, 30.938-33.988, 30.938-58.237c0.00-24.266-12.282-45.639-30.938-58.266l 26.346-19.812
			c 22.31,18.812, 36.78,46.624, 36.78,78.077C 417.938,255.537, 403.467,283.336, 381.157,302.133z"  />
<glyph unicode="&#xe008;" d="M 0.008,32.00l 223.984,0.00 L 223.992,159.719 L 0.008,159.719 L 0.008,32.00 z M 0.008,416.00l0.00-127.843 l 31.984,0.00 L 31.992,383.936 l 448.00,0.00 l0.00-319.872 l-64.00,0.00 L 415.992,32.00 l 96.00,0.00 L 511.992,416.00 L 0.008,416.00 z M 0.008,191.782
			l 31.984,0.00 l0.00,32.25 l 320.00,0.00 l0.00-159.968 l-96.00,0.00 L 255.992,32.00 l 128.00,0.00 L 383.992,256.093 L 0.008,256.093 L 0.008,191.782 z"  />
<glyph unicode="&#xe009;" d="M 369.39,116.788c-26.627,5.219-55.001,34.905-66.252,47.782l0.00,32.531 c 9.251,12.125, 17.376,34.857, 23.50,55.734
	c 0.531,1.968, 5.814-0.298, 9.312,4.70c 6.752,9.501, 8.563,23.939, 10.096,30.503c 2.406,10.326-8.096,10.781-8.096,10.781
	s 8.346,54.218, 1.126,88.515c-9.843,46.672-83.094,92.672-83.094,92.672s-73.22-46.00-83.062-92.672
	c-7.22-34.297, 1.143-88.515, 1.143-88.515s-10.563-0.455-8.129-10.781c 1.565-6.563, 3.315-21.001, 10.049-30.503
	c 3.549-4.998, 8.797-2.732, 9.359-4.70c 6.094-20.877, 14.25-43.609, 23.501-55.734l0.00-32.531 c-11.251-12.877-39.609-42.563-66.298-47.782
	c-34.217-6.688-52.703-33.844-44.688-101.562c 4.016-33.814, 81.047-48.407, 158.125-47.159
	c 77.094-1.248, 154.093,13.345, 158.156,47.159C 422.171,82.944, 403.64,110.10, 369.39,116.788z"  />
<glyph unicode="&#xe00a;" d="M0.00,480.00l0.00-512.00 l 512.00,0.00 L 512.00,480.00 L0.00,480.00 z M 480.00,0.00l-66.125,0.00 c 7.907,62.72-12.156,96.064-45.907,102.25c-26.342,4.812-54.342,32.313-65.437,44.217
	l0.00,30.064 c 9.095,11.312, 17.155,32.313, 23.188,51.642c 0.531,1.859, 5.718-0.221, 9.219,4.406c 6.624,8.78, 8.438,22.108, 9.937,28.186
	c 2.406,9.578-8.00,9.984-8.00,9.984s 8.221,50.221, 1.126,81.939c-9.719,43.203-82.00,85.811-82.00,85.811s-72.25-42.608-81.968-85.811
	c-7.126-31.718, 1.094-81.939, 1.094-81.939s-10.377-0.407-8.00-9.984c 1.562-6.077, 3.28-19.405, 9.936-28.186
	c 3.50-4.627, 8.688-2.547, 9.251-4.406c 6.00-19.328, 14.061-40.33, 23.188-51.642l0.00-30.064 c-11.095-11.903-39.126-39.404-65.424-44.217
	c-33.795-6.186-53.904-39.53-45.952-102.25L 32.00,0.00 L 32.00,448.00 l 448.00,0.00 L 480.00,0.00 z"  />
<glyph unicode="&#xe00b;" d="M 256.00,480.00C 114.624,480.00,0.00,365.376,0.00,224.00s 114.624-256.00, 256.00-256.00s 256.00,114.624, 256.00,256.00S 397.376,480.00, 256.00,480.00z M 256.00,32.00
			c-105.875,0.00-192.00,86.125-192.00,192.00S 150.125,416.00, 256.00,416.00s 192.00-86.125, 192.00-192.00S 361.875,32.00, 256.00,32.00z M 160.00,256.00l 64.00,0.00 l0.00-160.00 l 64.00,0.00 L 288.00,256.00 l 64.00,0.00 l-96.00,96.00
			L 160.00,256.00z"  />
<glyph unicode="&#xe00c;" d="M 448.00,96.00l0.00-64.00 L 64.00,32.00 l0.00,64.00 L0.00,96.00 l0.00-128.00 l 512.00,0.00 L 512.00,96.00 L 448.00,96.00 z M 224.093,64.00l 64.00,0.00 L 288.093,320.00 l 96.00,0.00 l-128.00,160.00
			l-128.00-160.00l 96.00,0.00 L 224.093,64.00 z"  />
<glyph unicode="&#xe00d;" d="M 426.406,462.89C 409.344,473.562, 389.437,480.00, 368.00,480.00c-61.875,0.00-112.00-50.938-112.00-113.782c0.00,0.00,0.00-3.357,0.00-5.203l0.00-108.576 L 60.00,252.439 
	c-15.437,0.00-28.00-12.704-28.00-28.438l0.00-227.562 C 32.00-19.28, 44.563-32.00, 60.00-32.00l 280.00,0.00 c 15.501,0.00, 28.00,12.72, 28.00,28.438L 368.00,224.00 
	c0.00,15.734-12.499,28.438-28.00,28.438l-28.032,0.00 L 311.968,361.015 c0.00,1.846,0.00,5.203,0.00,5.203c0.00,31.36, 25.188,56.893, 56.032,56.893
	s 55.968-25.533, 55.968-56.893l0.00-28.436 c0.00-15.718, 12.531-28.454, 28.032-28.454s 28.00,12.736, 28.00,28.454l0.00,28.436 
	C 480.00,407.251, 458.438,442.89, 426.406,462.89z M 233.562,36.281l-67.123,0.00 l 12.874,87.562c-7.626,6.222-12.874,15.438-12.874,26.222
	c0.00,18.81, 14.966,34.124, 33.562,34.124s 33.562-15.314, 33.562-34.124c0.00-10.784-5.248-20.00-12.874-26.222L 233.562,36.281z"  />
<glyph unicode="&#xe00e;" d="M 320.499,448.00l0.00-10.25 l 13.626,0.00 c 13.625,0.00, 23.875-4.032, 30.688-12.189c 4.999-5.875, 7.501-20.531, 7.501-43.936l0.00-151.907 
			c0.00-39.876-3.376-68.093-10.188-84.781c-6.874-16.688-19.501-30.374-38.125-41.126c-18.624-10.686-39.626-16.029-63.219-16.029
			c-18.406,0.00-33.969,3.437-46.592,10.218c-12.628,6.845-22.314,15.533-29.062,26.032c-6.752,10.499-11.44,25.155-14.00,44.00
			c-2.564,18.812-3.814,35.501-3.814,50.093l0.00,163.50 c0.00,20.999, 2.249,34.842, 6.623,41.469c 6.439,9.779, 17.002,14.656, 31.939,14.656
			l 13.75,0.00 L 219.626,448.00 L 64.00,448.00 l0.00-10.25 l 13.501,0.00 c 13.687,0.00, 23.529-3.594, 29.654-10.752c 6.096-7.248, 9.158-22.311, 9.158-45.373l0.00-146.627 
			c0.00-45.216, 2.874-76.00, 8.499-92.435c 8.50-23.969, 22.938-43.095, 43.312-57.22C 188.438,71.095, 218.281,64.00, 257.562,64.00
			c 36.188,0.00, 64.688,7.437, 85.626,22.281c 21.062,14.845, 35.126,32.624, 42.313,53.405c 7.062,20.72, 10.749,49.907, 10.749,87.564
			L 396.25,379.376 c0.00,20.842, 1.875,34.125, 5.562,39.875c 7.625,12.311, 18.438,18.50, 32.688,18.50L 448.00,437.751 L 448.00,448.00 L 320.499,448.00 z M 64.00,0.00l 384.00,0.00 l0.00,32.00 L 64.00,32.00 L 64.00,0.00 z"  />
<glyph unicode="&#xe00f;" d="M 224.97,480.00c 71.625-66.016, 191.031-213.952, 191.031-320.032
	C 416.001,54.00, 362.347-32.00, 256.813-32.00c-105.50,0.00-172.25,86.781-159.188,191.968C 110.375,262.391, 225.968,314.00, 224.97,480.00z"  />
<glyph unicode="&#xe010;" d="M 256.00,480.00C 114.624,480.00,0.00,365.392,0.00,224.00c0.00-141.376, 114.624-256.00, 256.00-256.00
			s 256.00,114.624, 256.00,256.00C 512.00,365.392, 397.376,480.00, 256.00,480.00z M 256.00,32.00c-106.032,0.00-192.00,85.968-192.00,192.00S 149.968,416.00, 256.00,416.00s 192.00-85.968, 192.00-192.00
			S 362.032,32.00, 256.00,32.00z M 256.00,224.00l-96.00,0.00 l0.00-32.00 l 128.00,0.00 L 288.00,384.00 l-32.00,0.00 L 256.00,224.00 z"  />
<glyph unicode="&#xe011;" d="M 32.00,448.00l0.00-64.00 l 448.00,0.00 L 480.00,448.00 L 32.00,448.00 z M 320.00,352.00L 32.00,352.00 l0.00-64.00 l 288.00,0.00 L 320.00,352.00 z M 192.00,256.00L 32.00,256.00 l0.00-64.00 l 160.00,0.00 L 192.00,256.00 z M 32.00,96.00
			l 384.00,0.00 l0.00,64.00 L 32.00,160.00 L 32.00,96.00 z M 32.00,0.00l 256.00,0.00 l0.00,64.00 L 32.00,64.00 L 32.00,0.00 z"  />
<glyph unicode="&#xe012;" d="M 119.062,431.312C 126.00,441.501, 134.33,448.375, 144.076,451.968c 7.502,2.656, 20.157,3.968, 37.956,3.968l 45.858,0.00 l0.00-293.373 
			c0.00-21.533-2.063-35.312-6.204-41.345c-6.749-9.843-18.17-14.752-34.294-14.752l-13.502,0.00 L 173.89,96.00 l 161.671,0.00 l0.00,10.467 l-13.188,0.00 
			c-14.812,0.00-25.811,3.972-32.938,11.907c-5.03,5.844-7.577,20.563-7.577,44.189L 281.858,455.936 l 53.702,0.00 c 15.75,0.00, 28.503-2.624, 38.125-7.811
			c 9.625-5.188, 17.439-13.251, 23.188-24.189c 3.564-6.81, 6.377-18.125, 8.438-34.00L 416.00,389.936 L 411.75,480.00L 100.483,480.00 L 96.00,389.936l 10.672,0.00 
			C 108.00,407.312, 112.125,421.094, 119.062,431.312z M 352.00,32.00L 160.00,32.00 l0.00,32.00 l-64.00-48.00l 64.00-48.00l0.00,32.00 l 192.00,0.00 l0.00-32.00 l 64.00,48.00l-64.00,48.00L 352.00,32.00 z"  />
<glyph unicode="&#xe013;" d="M 36.483,416.00L 32.00,325.936l 10.672,0.00 c 1.328,17.376, 5.453,31.158, 12.391,41.376C 62.00,377.501, 70.33,384.375, 80.076,387.968
			c 7.502,2.656, 20.157,3.968, 37.956,3.968l 45.858,0.00 l0.00-293.373 c0.00-21.533-2.063-35.312-6.204-41.345
			c-6.749-9.843-18.17-14.752-34.294-14.752l-13.502,0.00 L 109.89,32.00 l 161.703,0.00 l0.00,10.467 l-13.22,0.00 c-14.812,0.00-25.778,3.972-32.905,11.907
			c-5.062,5.844-7.609,20.563-7.609,44.189L 217.859,391.936 l 53.734,0.00 c 15.75,0.00, 28.471-2.624, 38.093-7.811
			c 9.657-5.188, 17.439-13.251, 23.188-24.189c 3.593-6.81, 6.406-18.125, 8.438-34.00L 352.00,325.936 L 347.782,416.00L 36.483,416.00 z M 448.00,352.00l 32.00,0.00 l-48.00,64.00l-48.00-64.00l 32.00,0.00 
			l0.00-256.00 l-32.00,0.00 l 48.00-64.00l 48.00,64.00l-32.00,0.00 L 448.00,352.00 z"  />
<glyph unicode="&#xe014;" d="M 310.845,464.00L 64.00,217.251L 201.155,80.00L 448.00,327.03L 448.00,464.00 L 310.845,464.00 z M 365.687,354.455
			c-15.123,0.00-27.373,12.31-27.373,27.469c0.00,15.155, 12.25,27.42, 27.373,27.42c 15.188,0.00, 27.439-12.265, 27.439-27.42
			C 393.126,366.765, 380.874,354.455, 365.687,354.455z M 89.376,146.608L 64.00,121.251L 201.155-16.00L 448.00,231.03l0.00,50.72 L 201.155,34.732
			L 89.376,146.608z"  />
<glyph unicode="&#xe015;" d="M 320.00,448.00L 32.00,160.125L 192.00,0.00l 288.00,288.189L 480.00,448.00 L 320.00,448.00 z M 384.00,320.202
	c-17.687,0.00-32.00,14.346-32.00,32.032c0.00,17.69, 14.313,32.016, 32.00,32.016s 32.00-14.326, 32.00-32.016C 416.00,334.547, 401.687,320.202, 384.00,320.202z"  />
<glyph unicode="&#xe016;" d="M0.00,448.00l0.00-448.00 l 512.00,0.00 L 512.00,448.00 L0.00,448.00 z M 320.00,384.00l0.00-96.00 L 192.00,288.00 L 192.00,384.00 L 320.00,384.00 z M 192.00,256.00l 128.00,0.00 l0.00-96.00 L 192.00,160.00 L 192.00,256.00 z M 32.00,384.00l 128.00,0.00 
	l0.00-96.00 L 32.00,288.00 L 32.00,384.00 z M 32.00,256.00l 128.00,0.00 l0.00-96.00 L 32.00,160.00 L 32.00,256.00 z M 32.00,32.00l0.00,96.00 l 128.00,0.00 l0.00-96.00 L 32.00,32.00 z M 192.00,32.00l0.00,96.00 l 128.00,0.00 l0.00-96.00 L 192.00,32.00 z M 480.00,32.00L 352.00,32.00 l0.00,96.00 l 128.00,0.00 L 480.00,32.00 z M 480.00,160.00L 352.00,160.00 l0.00,96.00 
	l 128.00,0.00 L 480.00,160.00 z M 480.00,288.00L 352.00,288.00 L 352.00,384.00 l 128.00,0.00 L 480.00,288.00 z"  />
<glyph unicode="&#xe017;" d="M 480.00,256.00L 291.188,256.00 c-1.376,0.749-2.438,1.376-3.812,2.125c-48.374,26.313-78.909,47.437-91.751,63.187
	c-8.876,10.752-13.344,22.624-13.344,35.687c0.00,17.065, 7.062,32.313, 21.095,45.689c 14.062,13.376, 32.00,20.00, 53.498,20.00
	c 19.033,0.00, 37.50-4.906, 55.219-14.781c 17.939-9.971, 31.689-29.251, 41.219-46.096C 362.874,344.938, 369.687,320.00, 373.501,288.00L 384.00,288.00 L 384.00,448.00 
	l-10.499,0.00 c-2.125-9.875-5.034-16.438-8.471-19.718c-3.404-3.283-7.719-4.97-13.03-4.97c-4.749,0.00-12.938,2.624-24.531,7.907
	C 302.25,442.375, 278.563,448.00, 256.156,448.00c-35.781,0.00-65.283-11.126-88.531-33.312c-23.187-22.25-34.812-48.72-34.812-79.501
	c0.00-17.625, 4.00-33.936, 11.812-48.624c 5.907-10.938, 14.438-21.001, 24.346-30.563L 32.00,256.00 l0.00-64.00 l 232.874,0.00 
	c 30.595-17.562, 50.128-29.594, 57.532-35.312c 12.032-9.251, 20.938-19.282, 26.596-30.031c 5.622-10.721, 8.592-21.405, 8.592-31.907
	c0.00-18.874-7.626-35.312-22.688-49.248c-15.062-13.939-35.344-20.845-61.248-20.845c-22.378,0.00-42.97,5.062-61.782,15.155
	c-18.688,10.096-32.624,29.314-41.686,44.595C 161.002,99.687, 153.75,128.00, 148.406,160.00L 128.00,160.00 l0.00-160.00 l 20.406,0.00 
	c 1.404,9.907, 3.719,16.467, 6.596,19.626c 3.03,3.123, 7.188,4.717, 12.374,4.717c 5.373,0.00, 18.125-3.345, 38.311-9.969
	c 20.221-6.624, 33.564-10.467, 40.00-11.562c 10.812-1.875, 22.346-2.812, 34.502-2.812c 38.813,0.00, 70.656,11.75, 95.53,35.188
	c 24.624,23.501, 37.094,51.469, 37.094,83.875c0.00,17.062-3.907,33.404-11.657,49.002c-4.311,8.685-9.904,16.56-16.281,23.936L 480.00,192.001 L 480.00,256.00 z"  />
<glyph unicode="&#xe018;" d="M 384.00,96.00L 128.00,96.00 L 128.00,352.00 l 256.00,0.00 L 384.00,96.00 z"  />
<glyph unicode="&#xe019;" d="M 128.00,96.00l 192.00,128.00L 128.00,352.00L 128.00,96.00 z M 320.00,352.00l0.00-128.00 l0.00-128.00 l 64.00,0.00 L 384.00,352.00 L 320.00,352.00 z"  />
<glyph unicode="&#xe01a;" d="M 192.00,224.00l 192.00-128.00L 384.00,352.00 L 192.00,224.00z M 128.00,352.00l0.00-256.00 l 64.00,0.00 L 192.00,224.00 L 192.00,352.00 L 128.00,352.00 z"  />
<glyph unicode="&#xe01b;" d="M 345.719,313.734l-128.281-43.517l-108.564,81.033l 1.75-135.439L0.00,137.562l 129.376-40.218L 169.594-32.00l 78.188,110.624
			l 135.437-1.75l-81.001,108.562L 345.719,313.734z M 239.376,401.28l 12.499-40.125l 24.25,34.313l 41.968-0.531L 292.97,428.579
			l 13.497,39.795l-39.779-13.501L 233.03,480.00l 0.531-42.00l-34.311-24.25L 239.376,401.28z M 476.125,238.89l 0.531,43.955l-35.22-26.282
			l-41.654,14.109l 14.125-41.642l-26.281-35.219l 43.936,0.531l 25.408-35.876L 470.00,200.438l 42.00,13.062L 476.125,238.89z"  />
<glyph unicode="&#xe01c;" d="M 256.00,480.00l 64.157-182.406L 512.00,297.139L 359.782,183.155L 438.845-32.00L 256.00,113.469L 73.126-32.00l 79.123,214.72L0.00,297.139
	l 191.875,0.455L 256.00,480.00z"  />
<glyph unicode="&#xe01d;" d="M 512.00,297.139l-191.843,0.455L 256.00,480.00l-64.125-182.406L0.00,297.139l 146.282-109.703L 73.126-32.00L 256.00,114.281L 438.845-32.00
	L 359.75,183.155L 512.00,297.139z M 256.00,150.845l-109.718-73.126L 195.75,197.28l-93.187,63.75l 115.875,0.00 L 256.00,370.282l 37.594-109.251L 409.03,261.031 
	l-92.656-63.188l 49.345-120.124L 256.00,150.845z"  />
<glyph unicode="&#xe01e;" d="M 512.00,297.139l-191.843,0.455L 256.00,480.00l-64.125-182.406L0.00,297.139l 146.282-109.703L 73.126-32.00L 256.00,114.281L 438.845-32.00
	l-79.062,215.155L 512.00,297.139z M 365.719,77.719L 256.00,150.845L 256.00,370.282 l 37.594-109.251l 115.469,0.00 l-92.688-63.188L 365.719,77.719z"  />
<glyph unicode="&#xe01f;" d="M 256.00,384.00l-96.00-128.00l 192.00,0.00 L 256.00,384.00z M 256.00,64.00l 96.00,128.00L 160.00,192.00 L 256.00,64.00z"  />
<glyph unicode="&#xe020;" d="M 256.00,288.00l-96.00-128.00l 192.00,0.00 L 256.00,288.00z"  />
<glyph unicode="&#xe021;" d="M 256.00,160.00l 96.00,128.00L 160.00,288.00 L 256.00,160.00z"  />
<glyph unicode="&#xe022;" d="M 166.527,479.998c 12.938-1.251, 19.75-8.00, 30.25-11.376
	c 14.47-2.531, 29.001-5.062, 43.50-7.562c 57.312-12.531, 129.529,5.50, 177.811,11.344c 1.469-4.217, 1.907-10.281, 1.875-17.03
	c 3.283-6.877-2.841-22.032-5.654-28.438c-11.938-27.094-32.845-40.845-49.158-62.531c-34.966-46.25-74.656-91.811-115.436-132.624
	c-24.531-24.594-63.312-56.156-79.437-87.158c 67.155-3.968, 103.625-46.406, 155.123-68.218c 20.281-8.563, 57.158-23.625, 88.908-13.251
	c 11.719,3.843, 20.624,12.877, 30.25,18.938c 2.374-16.998, 6.374-37.687,0.00-54.938c-11.939-32.406-54.563-72.311-107.814-54.938
	c-61.123,19.907-96.467,70.502-157.03,92.812c-20.438,7.564-43.626,9.501-70.00,9.501c-11.875,0.00-34.938-4.812-39.687-1.907
	c-19.283,28.471, 12.874,80.531, 24.563,92.845c 40.436,42.596, 81.748,85.312, 117.312,132.624
	c 20.999,27.939, 51.436,51.44, 68.092,83.376c-0.624,0.00-1.251,0.00-1.875,0.00c-6.812-4.438-20.592,0.032-30.281-1.907
	c-48.688-9.625-112.624-6.061-111.625,43.594c 4.377,6.157, 3.875,13.689, 7.565,20.845C 150.028,456.03, 161.964,466.561, 166.527,479.998z"  />
<glyph unicode="&#xe023;" d="M 173.718,480.00l-20.313-79.002l-2.029,0.00 L 130.064,480.00L 96.938,480.00 l 42.032-131.002l0.00-55.123 l 24.125,0.00 
	l0.00,58.749 L 207.126,480.00L 173.718,480.00 z M 278.812,393.907c0.00,11.155-3.811,20.282-11.532,27.344c-7.654,7.062-9.53,12.813-21.623,12.813
	c-13.283,0.00-16.531-5.626-24.438-12.253c-7.843-6.749-11.75-15.747-11.75-26.999l0.00-61.126 c0.00-12.435, 3.875-22.281, 11.501-29.686
	c 7.654-7.251, 11.344-10.874, 24.061-10.874c 13.22,0.00, 14.905,3.562, 22.563,10.56c 7.501,7.062, 11.219,16.877, 11.219,29.376L 278.813,393.907 z
	 M 371.907,433.936l-23.344,0.00 l0.00-93.248 c-2.752-3.219-5.751-5.843-8.938-7.939c-3.376-2.00-6.00-11.779-8.189-11.779
	c-2.688,0.00-3.219,0.749-4.467,2.311c-1.22,1.533-1.844,4.00-1.844,7.469L 325.125,433.936 L 301.75,433.936 L 301.75,320.72 c0.00-8.784, 1.751-15.283, 5.095-19.533
	c 3.405-4.375, 1.312-6.563, 8.00-6.563c 5.437,0.00, 11.123,1.564, 16.905,4.627c 5.937,3.123, 11.501,16.435, 16.813,22.311l0.00-24.813 l 23.344,0.00 L 371.907,433.936 
	z M 512.00,152.188c0.00,52.81-41.812,95.623-93.501,95.623L 93.533,247.811 C 41.875,247.811,0.00,204.998,0.00,152.188l0.00-88.595 
	C0.00,10.873, 41.875-32.00, 93.533-32.00l 324.966,0.00 C 470.188-32.00, 512.00,10.873, 512.00,63.594L 512.00,152.188 z M 383.155,14.845
	c-10.688,0.00-18.998,3.344-25.123,10.153c-6.097,6.563-9.188,15.847-9.188,27.626l0.00,55.001 c0.00,10.531, 3.405,30.00, 10.093,36.563
	c 6.781,6.781, 15.312,10.029, 25.907,10.029c 10.905,0.00, 19.248-3.031, 24.967-9.155c 5.938-6.313, 8.812-25.907, 8.812-37.438l0.00-23.219 
	l-45.373,0.00 l0.00-30.97 c0.00-6.499, 0.842-10.905, 2.406-13.437c 1.594-2.468, 4.154-3.751, 8.062-3.751c 3.875,0.00, 6.562,1.062, 8.124,3.188
	c 1.533,2.125, 2.407,6.656, 2.407,14.00l0.00,5.533 l 24.374,0.00 l0.00-6.346 c0.00-12.561-2.874-21.968-8.874-28.311
	C 403.75,18.063, 394.874,14.845, 383.155,14.845z M 394.25,103.437l0.00,4.313 c0.00,5.188-0.874,19.626-2.50,21.782
	c-1.532,2.218-4.281,3.341-7.907,3.341c-3.718,0.00-6.467-1.123-8.093-3.341c-1.625-2.156-2.499-16.595-2.499-21.782l0.00-4.313 L 394.25,103.437 z
	 M 303.594,14.531c-4.845,0.00-9.127,1.001-12.845,2.905c-3.654,1.814-7.155,4.627-10.406,8.627l0.00-9.782 L 255.75,16.281 L 255.75,200.998 l 23.155,0.00 l0.00-55.843 
	c 3.345,3.875, 8.346,6.877, 11.844,8.908c 3.782,2.029, 7.501,3.062, 11.344,3.062c 7.657,0.00, 13.657-2.845, 17.657-8.281
	c 4.032-5.44, 6.062-13.408, 6.062-23.847l0.00-82.374 c0.00-9.062-1.904-15.937-5.654-20.781C 316.281,17.062, 310.749,14.531, 303.594,14.531z
	 M 302.874,123.625c0.00,4.282-3.031,7.53-4.656,9.812c-1.875,2.221-4.406,3.219-7.623,3.219c-1.813,0.00-3.469-0.374-5.219-1.219
	c-1.626-0.781-4.752-2.125-6.471-3.843l0.00-91.031 c 1.939-2.00, 5.345-3.593, 7.312-4.499c 1.847-0.97, 3.75-1.439, 5.847-1.439
	c 2.966,0.00, 5.187,0.938, 6.592,2.78c 1.344,1.722, 4.218,4.659, 4.218,8.752L 302.874,123.625 z M 208.218,31.562
	c-4.50-4.999-9.155-10.468-14.061-13.123c-4.813-2.813-9.533-4.032-14.157-4.032c-5.625,0.00-9.875,1.843-12.72,5.657
	c-2.874,3.812-4.998,9.405-4.998,16.967L 162.282,153.907 l 23.593,0.00 l0.00-108.25 c0.00-2.97, 0.531-5.095, 1.53-6.471c 1.062-1.279, 2.72-2.00, 5.001-2.00
	c 1.75,0.00, 5.501,0.877, 8.25,2.721c 2.749,1.718, 6.72,4.028, 9.002,6.655L 209.658,153.907 l 22.966,0.00 L 232.624,14.78 l-24.406,0.00 L 208.218,31.562 z M 139.594,14.905
	l-23.437,0.00 L 116.157,177.75 L 93.28,177.75 l0.00,23.248 l 69.939,0.00 l0.00-23.248 l-23.625,0.00 L 139.594,14.905 z M 244.25,318.374c-3.875,0.00-6.874,1.095-8.874,3.283
	c-2.125,2.154-3.158,5.248-3.158,9.28L 232.218,395.843 c0.00,3.219, 1.158,5.783, 3.344,7.719c 2.221,2.00, 5.094,3.001, 8.688,3.001
	c 3.843,0.00, 5.501-1.001, 7.907-3.001c 2.342-1.936, 3.594-4.50, 3.594-7.719l0.00-64.905 c0.00-3.968-1.219-7.002-3.501-9.28
	C 249.811,319.469, 248.218,318.374, 244.25,318.374z"  />
<glyph unicode="&#xe024;" d="M 232.00,253.91c 13.312-1.034, 22.721,8.999, 22.721,26.282c0.00,17.312, 5.843,182.684-6.471,194.591
			c-12.375,11.844-60.656,0.471-73.908-4.406c-28.217-10.249-59.593-26.249-60.25-39.936C 113.438,416.752, 218.75,255.001, 232.00,253.91z
			 M 345.751,213.19c 23.654,5.062, 100.093,20.938, 101.719,42.563c 1.594,21.562-44.374,96.531-63.501,96.531
			c-10.998-0.406-94.624-111.657-80.688-132.595C 311.969,206.69, 322.065,208.128, 345.751,213.19z M 211.659,190.502
			c0.00,14.375-40.221,34.627-40.221,34.627s-73.562,35.28-87.188,33.872c-13.594-1.437-18.874-40.375-20.032-68.50
			c-3.28-79.248, 31.408-58.688, 31.408-58.688s 72.938,25.938, 87.219,31.689C 197.063,169.283, 211.659,176.16, 211.659,190.502z
			 M 236.75,132.908c-16.813,1.844-36.00-31.687-46.375-44.655c-10.375-12.999-50.50-58.749-50.874-70.999
			c-0.314-12.253, 21.373-25.219, 51.248-37.469c 29.782-12.249, 63.44-20.908, 64.812,5.437c 1.251,26.282,0.00,100.125,0.00,108.407
			C 255.562,101.91, 256.19,130.752, 236.75,132.908z M 425.345,122.128c-15.594,6.093-101.094,48.595-116.032,30.595
			c-9.50-11.469-3.562-30.253, 6.438-48.313c 10.062-18.00, 46.375-78.873, 46.375-78.873s 6.47-16.189, 17.811-16.189
			c 11.345,0.00, 33.722,23.562, 45.066,41.155c 11.341,17.594, 22.998,38.781, 22.998,50.346
			C 448.001,112.377, 440.875,115.971, 425.345,122.128z"  />
<glyph unicode="&#xe025;" d="M 405.469,293.437c0.00,0.00, 19.782,11.625, 34.032,11.625c 14.249,0.00, 32.905,0.00, 32.905,0.00l 12.157,30.00L 278.374,335.062 l 2.189-22.563
			l 12.124-6.406l 53.53-2.093c0.00,0.00, 3.251-11.625-5.469-18.032c-8.874-6.281-86.842-75.469-86.842-75.469l-98.781,120.938
			c0.00,0.00, 2.186,3.126, 16.435,3.126c 14.313,0.00, 56.063,0.00, 56.063,0.00L 227.623,384.00 L0.00,384.00 l0.00-49.687 c0.00,0.00, 28.877,0.00, 43.126,0.00s 30.717-15.564, 44.999-29.376
			c 14.281-13.718, 113.312-118.812, 113.312-118.812l 0.655-86.563c0.00,0.00-7.469-12.688-36.00-12.688c-28.56,0.00-39.53-2.186-39.53-2.186
			l0.00-20.314 l 226.186,0.00 l0.00,14.877 c0.00,0.00-6.531,9.747-12.00,9.747l-53.687,0.00 c-6.563,0.00-8.781,7.376-8.781,16.938c0.00,9.44,0.00,74.938,0.00,74.938
			L 405.469,293.437z M 455.188,129.251l 16.124-1.439L 512.00,258.375l-56.874,4.188L 455.188,129.251z M 430.346,64.00l 48.905,0.00 l 2.406,45.936
			l-51.312-1.247L 430.345,64.00 z"  />
<glyph unicode="&#xe026;" d="M0.00,224.00c0.00-101.251, 58.874-188.874, 144.313-230.313L 22.157,328.189
	C 7.936,296.342,0.00,261.126,0.00,224.00z M 428.812,236.906c0.00,31.657-11.376,53.593-21.094,70.627c-12.97,21.091-25.124,38.906-25.124,60.029
	c0.00,23.533, 17.812,45.408, 42.999,45.408c 1.094,0.00, 2.188-0.125, 3.28-0.221C 383.344,454.499, 322.688,480.00, 256.032,480.00
	C 166.563,480.00, 87.875,434.093, 42.125,364.624c 6.00-0.218, 11.657-0.342, 16.47-0.342c 26.781,0.00, 68.278,3.28, 68.278,3.28
	c 13.75,0.781, 15.376-19.437, 1.565-21.123c0.00,0.00-13.814-1.594-29.312-2.438l 93.248-277.251l 56.032,168.00L 208.499,344.00
	c-13.779,0.845-26.841,2.438-26.841,2.438c-13.783,0.841-12.157,21.904, 1.654,21.123c0.00,0.00, 42.25-3.28, 67.409-3.28
	c 26.748,0.00, 68.249,3.28, 68.249,3.28c 13.779,0.781, 15.404-19.437, 1.594-21.123c0.00,0.00-13.814-1.594-29.283-2.438l 92.531-275.126
	l 25.532,85.314C 422.313,187.437, 428.812,214.998, 428.812,236.906z M 260.531,201.594l-76.845-223.188
	c 22.938-6.72, 47.187-10.406, 72.346-10.406c 29.779,0.00, 58.374,5.188, 84.998,14.563c-0.688,1.094-1.312,2.186-1.812,3.501
	L 260.531,201.594z M 480.656,346.845c 1.094-8.221, 1.75-16.938, 1.75-26.377c0.00-25.936-4.873-55.124-19.501-91.654l-78.156-226.064
	C 460.812,47.126, 512.00,129.562, 512.00,224.00C 512.00,268.531, 500.656,310.342, 480.656,346.845z"  />
<glyph unicode="&#xe027;" d="M 238.845,64.00L 126.563,64.00 L0.00,384.00l 108.282,0.00 l 75.376-209.219L 258.125,384.00l 105.126,0.00 L 238.845,64.00z M 512.00,328.749
	c0.00,29.939-23.75,54.157-53.062,54.157c-29.219,0.00-52.998-24.218-52.998-54.157c0.00-29.875, 23.779-54.061, 52.998-54.061
	C 488.25,274.688, 512.00,298.874, 512.00,328.749z"  />
<glyph unicode="&#xe028;" d="M0.00,328.531c 45.062,35.687, 109.126,114.00, 159.094,114.00c 49.908,0.00, 62.157-58.438, 68.97-111.501
	c 6.873-52.998, 26.498-168.966, 52.873-168.966c 26.438,0.00, 86.656,102.56, 83.22,142.217c-3.408,39.625-46.97,33.686-70.97,22.313
	C 315.219,405.875, 366.125,448.00, 431.219,448.00C 496.313,448.00, 512.00,402.406, 512.00,346.406C 512.00,261.155, 337.75,0.00, 232.499,0.00
	c-65.123,0.00-81.248,95.155-94.435,142.25c-13.251,47.062-39.19,170.47-69.533,178.374c-11.782,1.971-45.03-24.25-45.03-24.25
	L0.00,328.531z"  />
<glyph unicode="&#xe029;" d="M 398.25,202.313c 68.249,0.00, 113.75,52.436, 113.75,121.188C 512.00,392.25, 456.656,448.00, 388.343,448.00
	c-62.093,0.00-113.438-46.064-122.218-106.189l-3.968,0.00 C 253.376,401.936, 202.016,448.00, 139.907,448.00C 71.625,448.00, 28.438,386.688, 28.438,317.936
	c0.00-68.154, 46.375-114.625, 113.779-115.623l0.00,0.00l0.00,0.00l0.00-57.814 L0.00,202.313l0.00-173.408 l 142.218,28.877L 142.218,0.00 L 369.75,0.00 l-85.312,202.313L 398.25,202.313 
	C 398.313,202.313, 398.125,202.313, 398.25,202.313z M 139.907,288.313c-19.283,0.00-34.906,15.75-34.906,35.188
	c0.00,19.437, 15.623,35.187, 34.906,35.187c 19.264,0.00, 34.921-15.75, 34.921-35.187C 174.829,304.064, 159.171,288.313, 139.907,288.313z
	 M 356.00,323.501c0.00,19.437, 15.626,35.187, 34.845,35.187c 19.373,0.00, 34.967-15.75, 34.967-35.187c0.00-19.437-15.594-35.188-34.967-35.188
	C 371.626,288.313, 356.00,304.064, 356.00,323.501z"  />
<glyph unicode="&#xe02a;" d="M 512.00,382.00c-8.624-4.749-34.499-14.25-58.624-16.624c 15.469,8.342, 38.374,35.654, 44.032,57.373
	c-14.877-9.498-49.034-23.344-65.907-23.344c0.00,0.00,0.00-0.029, 0.032-0.061C 412.281,419.469, 385.219,432.00, 355.155,432.00
	c-58.311,0.00-105.622-47.28-105.622-105.625c0.00-8.093, 0.966-15.968, 2.717-23.53l-0.032,0.00 C 173.094,304.874, 80.595,344.531, 28.47,412.406
	c-32.00-55.437-4.313-117.062, 32.029-139.533c-12.406-0.966-35.344,1.408-46.125,11.907c-0.749-36.781, 16.97-85.53, 81.469-103.187
	c-12.435-6.72-34.375-4.812-43.968-3.344c 3.376-31.095, 46.874-71.719, 94.407-71.719C 129.344,86.97, 71.533,51.376,0.00,62.72
	C 48.595,33.126, 105.251,16.00, 165.219,16.00c 170.407,0.00, 302.749,138.093, 295.625,308.467c0.00,0.189-0.063,0.406-0.063,0.563
	c0.00,0.471, 0.063,0.938, 0.063,1.344c0.00,0.531-0.063,1.03-0.063,1.593C 476.281,338.531, 497.095,357.28, 512.00,382.00z"  />
<glyph unicode="&#xe02b;" d="M 198.781,70.874c-9.405,5.469-15.843,12.752-19.312,21.938
			c-3.469,9.123-10.921,29.812-10.921,62.032l0.00,90.342 L 303.75,245.186 l0.00,97.126 L 168.547,342.312 L 168.547,480.00 l-56.749,0.00 c-3.594-28.688-4.455-38.125-14.00-56.72
			c-9.549-18.56-22.237-42.966-38.032-56.217C 43.984,353.811, 22.157,340.845,0.00,333.75l0.00-88.563 l 65.187,0.00 l0.00-142.749 
			c0.00-25.44, 2.704-44.812, 8.093-58.188c 5.424-13.405, 15.095-26.032, 29.079-37.907c 13.987-11.844, 44.97-27.438, 44.97-27.438
			s 24.861-9.625, 50.624-9.625c 22.688,0.00, 43.83,2.249, 63.359,6.752c 19.533,4.499, 48.531,15.187, 72.628,26.406l0.00,87.622 
			c-28.253-18.278-63.859-30.249-92.346-30.249C 225.501,59.812, 211.235,63.501, 198.781,70.874z M 442.281,105.469
			c-38.467,0.00-69.718-30.78-69.718-68.749c0.00-37.971, 31.251-68.72, 69.718-68.72C 480.749-32.00, 512.00-1.251, 512.00,36.72
			C 512.00,74.688, 480.749,105.469, 442.281,105.469z"  />
<glyph unicode="&#xe02c;" d="M 284.438,278.845l 33.248-23.469l 52.063,23.469l-0.313,26.125C 367.626,363.936, 317.626,416.00, 256.00,416.00
	c-61.437,0.00-111.344-51.687-113.501-110.375l0.00-158.407 c0.00-14.281-12.061-25.907-26.874-25.907c-14.905,0.00-30.282,6.064-30.282,20.438L 85.343,224.00 
	L0.00,224.00 c0.00,0.00,0.00-81.469,0.00-82.25C0.00,81.155, 51.001,32.00, 113.782,32.00c 62.282,0.00, 112.874,49.936, 113.779,109.75L 227.561,306.313 
	c0.00,14.311, 13.565,27.373, 28.438,27.373c 14.845,0.00, 28.438-13.062, 28.438-27.373L 284.437,278.845 z M 426.688,224.00l0.00-82.25 
	c0.00-14.345-15.437-23.562-30.313-23.562c-14.873,0.00-26.938,11.594-26.938,25.937L 369.75,224.00l-52.063-25.907L 284.438,224.00l0.00-82.25 
	C 285.002,81.594, 335.75,32.00, 398.25,32.00C 461.002,32.00, 512.00,81.155, 512.00,141.75c0.00,0.781,0.00,82.25,0.00,82.25L 426.688,224.00 z"  />
<glyph unicode="&#xe02d;" d="M 1.181,172.781c-5.766-26.999, 10.672-64.00, 25.546-76.781L 26.727,224.00 
			C 11.854,211.219, 5.54,192.998, 1.181,172.781z M 438.687,235.625c-8.938,0.00-17.344-1.75-25.219-4.531
			C 409.532,298.439, 351.467,352.00, 279.84,352.00c-45.778,0.00-101.22-17.875-125.421-51.187L 154.419,96.00 l 284.268,0.00 
			C 479.188,96.00, 512.00,127.251, 512.00,165.782C 512.00,204.374, 479.188,235.625, 438.687,235.625z M 103.372,96.00l 25.53,0.00 L 128.902,275.187 l-25.53,0.00 L 103.372,96.00 z
			 M 52.276,96.00l 25.546,0.00 L 77.822,249.626 L 52.276,249.626 L 52.276,96.00 z"  />
<glyph unicode="&#xe02e;" d="M 474.627,189.312c 1.687,11.188, 2.842,22.50, 2.842,34.094c0.00,126.032-102.186,228.22-228.25,228.22
	c-11.781,0.00-23.279-1.158-34.562-2.876C 191.875,468.189, 162.406,480.00, 130.157,480.00C 58.313,480.00,0.00,421.718,0.00,349.843
	c0.00-29.344, 9.814-56.342, 26.221-78.093c-3.344-15.594-5.219-31.75-5.219-48.345c0.00-126.094, 102.157-228.279, 228.217-228.279
	c 16.189,0.00, 32.00,1.748, 47.22,4.967C 319.312-19.843, 349.126-32.00, 381.843-32.00C 453.719-32.00, 512.00,26.281, 512.00,98.157
	C 512.00,133.687, 497.75,165.843, 474.627,189.312z M 355.719,124.00c-8.967-12.781-22.157-22.781-39.469-30.00
	c-17.312-7.28-37.844-10.874-61.562-10.874c-28.498,0.00-52.00,4.938-70.499,14.842c-13.095,7.095-23.75,16.596-31.968,28.499
	c-8.188,11.847-12.313,23.408-12.313,34.628c0.00,6.531, 2.467,12.093, 7.376,16.717c 4.938,4.655, 11.216,6.97, 18.813,6.97
	c 6.153,0.00, 11.405-1.783, 15.654-5.438c 4.25-3.594, 7.907-8.97, 10.905-16.063c 3.69-8.468, 7.658-15.498, 11.907-21.155
	c 4.25-5.687, 10.282-10.375, 18.00-14.032c 7.751-3.687, 17.937-5.529, 30.50-5.529c 17.344,0.00, 31.408,3.687, 42.221,11.123
	c 10.812,7.408, 16.25,16.656, 16.25,27.782c0.00,8.781-2.906,15.937-8.752,21.405c-5.844,5.50-13.373,9.689-22.656,12.595
	c-9.248,2.874-21.562,5.968-37.095,9.219c-20.717,4.468-38.061,9.687-52.029,15.626c-13.971,6.00-25.094,14.125-33.251,24.436
	c-8.218,10.345-12.313,23.158-12.313,38.438c0.00,14.624, 4.313,27.562, 13.001,38.906c 8.624,11.312, 21.155,20.064, 37.594,26.125
	c 16.406,6.096, 35.657,9.126, 57.843,9.126c 17.687,0.00, 33.03-2.00, 45.939-6.032c 12.938-4.032, 23.654-9.405, 32.186-16.093
	c 8.499-6.72, 14.752-13.75, 18.688-21.094c 3.939-7.344, 5.907-14.531, 5.907-21.501c0.00-6.406-2.47-12.186-7.344-17.312
	c-4.938-5.094-11.094-7.687-18.438-7.687c-6.688,0.00-11.782,1.562-15.251,4.624c-3.466,3.062-7.248,8.093-11.312,15.094
	c-5.248,10.00-11.53,17.843-18.906,23.437c-7.344,5.594-19.155,8.406-35.437,8.406c-15.062,0.00-27.22-3.03-36.47-9.123
	c-9.281-6.064-13.876-13.408-13.876-21.971c0.00-5.312, 1.565-9.904, 4.72-13.75c 3.127-3.875, 7.469-7.155, 13.002-9.936
	c 5.469-2.781, 11.062-4.938, 16.717-6.563c 5.625-1.53, 14.938-3.843, 27.939-6.845c 16.249-3.498, 30.966-7.373, 44.156-11.594
	c 13.188-4.218, 24.403-9.341, 33.654-15.341c 9.28-6.064, 16.50-13.69, 21.658-22.909c 5.187-9.22, 7.779-20.531, 7.779-33.937
	C 369.188,151.219, 364.688,136.781, 355.719,124.00z"  />
<glyph unicode="&#xe02f;" d="M 82.263,141.705c 22.956,0.00, 43.692,9.463, 58.62,24.641l 207.655-105.123c-0.502-3.619-1.126-7.183-1.126-10.898
	c0.00-45.473, 36.854-82.324, 82.296-82.324C 475.146-32.00, 512.00,4.852, 512.00,50.324c0.00,45.381-36.854,82.295-82.292,82.295
	c-23.206,0.00-44.101-9.744-59.029-25.204L 163.369,212.35c 0.531,3.841, 1.187,7.652, 1.187,11.683c0.00,4.433-0.656,8.776-1.312,13.083
	l 207.00,103.968c 14.989-15.708, 36.038-25.639, 59.465-25.639c 45.438,0.00, 82.292,36.852, 82.292,82.292C 512.00,443.146, 475.146,480.00, 429.708,480.00
	c-45.441,0.00-82.296-36.854-82.296-82.263c0.00-3.559, 0.624-6.87, 1.03-10.307L 139.914,282.62c-14.864,14.615-35.166,23.672-57.651,23.672
	C 36.854,306.292,0.00,269.441,0.00,224.032C0.00,178.592, 36.854,141.705, 82.263,141.705z"  />
<glyph unicode="&#xe030;" d="M 373.687,53.092C 437.501,93.747, 480.00,166.403, 480.00,249.341C 480.00,376.717, 379.687,479.997, 256.00,479.997
	c-123.734,0.00-224.00-103.28-224.00-230.656c0.00-127.408, 100.266-230.688, 224.00-230.688c 18.188,0.00, 35.875,2.313, 52.812,6.531
	c 21.252-39.312, 53.626-67.123, 122.406-53.812l0.00,39.091 C 431.219,10.464, 387.126,21.716, 373.687,53.092z M 372.125,218.842
	c0.00-38.531-12.061-73.469-31.658-99.312c-24.624,26.624-63.216,48.531-112.186,45.747l0.00-4.686 l0.00-40.659 c0.00,0.00, 33.22-1.341, 55.969-41.03
	c-8.531-2.562-17.405-3.936-26.563-3.936c-63.171,0.00-114.391,64.406-114.391,143.875c0.00,10.186,0.00,49.219,0.00,59.405
	c0.00,79.469, 51.219,143.875, 114.391,143.875c 63.219,0.00, 114.438-64.407, 114.438-143.875
	C 372.125,268.061, 372.125,229.027, 372.125,218.842z"  />
<glyph unicode="&#xe031;" d="M 268.115,480.00C 127.124,480.00, 56.00,379.811, 56.00,296.281c0.00-50.595, 19.304-95.593, 60.765-112.345c 6.843-2.624, 12.901-0.125, 14.877,7.344
	c 1.382,5.158, 4.616,18.188, 6.059,23.626c 1.993,7.376, 1.241,10.00-4.269,16.374c-11.943,13.971-19.586,32.032-19.586,57.658
	c0.00,74.342, 56.121,140.845, 146.108,140.845c 79.599,0.00, 123.478-48.221, 123.478-112.72c0.00-84.749-37.853-156.25-94.036-156.25
	c-31.106,0.00-54.379,25.404-46.894,56.592c 8.916,37.19, 26.162,77.408, 26.162,104.346c0.00,24.061-13.059,44.186-39.973,44.186
	c-31.748,0.00-57.216-32.592-57.216-76.154c0.00-27.75, 9.447-46.531, 9.447-46.531s-32.469-136.407-38.167-160.252
	c-11.361-47.594-1.693-105.872-0.877-111.747c 0.469-3.501, 5.02-4.346, 7.029-1.69c 2.934,3.783, 40.741,50.032, 53.578,96.25
	c 3.657,13.033, 20.889,80.845, 20.889,80.845c 10.311-19.501, 40.442-36.688, 72.489-36.688c 95.387,0.00, 160.138,86.156, 160.138,201.564
	C 456.00,398.748, 381.424,480.00, 268.115,480.00z"  />
<glyph unicode="&#xe032;" d="M 457.562,361.185l-112.00,0.00 C 322.281,373.874, 284.624,384.00, 256.00,384.00c-28.562,0.00-66.25-10.125-89.562-22.814L 144.00,361.186 
			C 143.28,384.313, 124.624,384.00, 113.501,384.00L 72.749,384.00 c-11.216,0.00-18.311-11.844-18.311-22.814c-11.219,0.00-22.438-6.158-22.438-17.189
			l0.00-239.899 c0.00-11.095, 11.219-17.221, 22.438-17.221l 112.00,0.00 C 189.75,74.251, 227.438,64.00, 256.00,64.00c 28.624,0.00, 66.281,10.251, 89.562,22.876l 112.00,0.00 
			c 11.283,0.00, 22.438,6.126, 22.438,17.221L 480.00,343.996 C 480.00,355.027, 468.845,361.185, 457.562,361.185z M 54.438,109.783L 54.438,338.309 L 144.00,338.309 
			c-33.875-29.318-50.874-66.413-50.874-114.261c0.00-47.88, 16.999-85.042, 50.874-114.265L 54.438,109.783 z M 329.188,104.097
			c-10.50-6.189-21.876-11.095-34.00-14.564c-0.624-0.093-1.345-0.311-2.093-0.563c-4.906-1.312-9.844-2.218-14.906-3.123
			c-1.407-0.125-2.812-0.438-4.188-0.531c-5.875-0.781-11.907-1.251-18.00-1.251s-12.125,0.47-18.00,1.251
			c-1.376,0.093-2.781,0.406-4.189,0.531c-5.062,0.905-10.061,1.811-14.938,3.123c-0.684,0.253-1.436,0.471-2.124,0.563
			c-12.062,3.47-23.437,8.375-33.936,14.564c-41.501,24.409-69.312,68.913-69.312,119.951c0.00,51.003, 27.811,95.507, 69.312,119.948
			c 10.499,6.218, 21.875,11.127, 33.936,14.501c 0.688,0.221, 1.44,0.374, 2.124,0.563c 4.877,1.312, 9.876,2.314, 14.938,3.063
			c 1.408,0.282, 2.813,0.499, 4.222,0.656c 5.875,0.781, 11.903,1.283, 17.968,1.283s 12.093-0.502, 17.968-1.283
			c 1.408-0.157, 2.813-0.374, 4.221-0.656c 5.062-0.749, 10.00-1.75, 14.906-3.063c 0.748-0.189, 1.469-0.342, 2.093-0.563
			c 12.124-3.374, 23.50-8.283, 34.00-14.501c 41.50-24.441, 69.312-68.944, 69.312-119.948C 398.499,173.01, 370.688,128.506, 329.188,104.097z
			 M 457.562,109.783L 368.00,109.783 c 33.907,29.223, 50.97,66.385, 50.97,114.265c0.00,47.848-17.062,84.943-50.97,114.261l 89.562,0.00 L 457.562,109.783 z
			 M 256.00,338.309l0.00-22.879 c 52.281,0.00, 89.562-40.065, 89.562-91.382L 368.00,224.048 C 368.00,284.678, 317.812,338.309, 256.00,338.309z"  />
<glyph unicode="&#xe033;" d="M 168.156,166.874l 96.592,0.00 c 92.376,0.00, 169.563,56.937, 190.252,153.782C 478.404,430.218, 399.81,480.00, 332.217,480.00l-230.25,0.00 L0.00,11.719
			l 135.062,0.00 L 168.156,166.874z M 216.465,384.688l 66.19,0.00 c 33.094,0.00, 55.187-28.499, 45.469-64.032
			c-8.282-35.658-42.688-64.093-77.188-64.093l-63.468,0.00 L 216.465,384.688z M 485.402,391.968c 10.596-23.562, 14.096-53.154, 6.407-89.437
			c-20.717-96.845-97.904-153.783-190.277-153.783l-96.563,0.00 l-33.095-155.155l-113.50,0.00 L 52.78-32.00l 135.094,0.00 l 33.094,155.155l 96.564,0.00 
			c 92.373,0.00, 169.561,56.938, 190.276,153.782C 518.685,327.907, 507.401,365.811, 485.402,391.968z"  />
<glyph unicode="&#xe034;" d="M 435.251,300.875l0.00-76.969 L 76.813,223.906 l0.00,76.969 L0.00,301.00l0.00-154.00 l 46.938,0.00 l 35.437,0.00 l 347.312,0.00 L 512.00,147.00 
	l0.00,93.316 L 512.00,301.00 L 435.251,300.875z"  />
<glyph unicode="&#xe035;" d="M0.00-31.562l 96.07,0.00 L 96.07,352.109 L0.00,352.109 L0.00-31.562 z M 384.281,352.109
			c-82.245-1.375-122.714-61.228-128.093-63.945l0.00,63.945 l-96.07,0.00 l0.00-383.672 l 96.07,0.00 L 256.188,192.246 c0.00,8.211, 20.263,73.937, 96.07,63.945
			c 40.717-2.654, 62.673-56.419, 64.047-63.945l0.00-223.809 L 512.00-32.00L 512.00,233.619 C 508.621,271.96, 489.421,350.734, 384.281,352.109z M 48.035,480.00
			C 21.517,480.00,0.00,458.55,0.00,432.041s 21.517-47.959, 48.035-47.959S 96.07,405.532, 96.07,432.041S 74.554,480.00, 48.035,480.00z"  />
<glyph unicode="&#xe036;" d="M 432.998,254.624c-4.467,1.625-8.78,3.126-12.998,4.595
	c-31.843,11.094-51.095,17.779-51.095,45.28c0.00,22.282, 15.562,38.438, 36.906,38.438c 16.438,0.00, 28.627-7.562, 39.564-24.531
	c 1.03-1.593, 2.998-2.157, 4.56-1.219l 32.157,18.189c 0.877,0.467, 1.533,1.373, 1.814,2.375c 0.281,1.062, 0.186,2.157-0.313,3.123
	c-17.251,33.875-42.093,50.377-75.939,50.377c-51.594,0.00-84.905-34.563-84.905-88.032c0.00-54.656, 32.221-76.813, 91.689-98.47
	c 34.436-12.717, 49.687-19.498, 49.687-46.656c0.00-30.499-24.845-52.467-58.781-51.188c-35.532,1.345-46.313,22.25-59.843,56.406
	c-22.877,57.876-48.97,125.438-49.22,126.125C 270.125,356.282, 218.25,394.624, 154.00,394.624c-84.938,0.00-154.00-76.563-154.00-170.656
	c0.00-94.061, 69.062-170.592, 154.00-170.592c 46.313,0.00, 89.719,22.749, 119.095,62.406c 0.841,1.188, 1.03,2.749, 0.499,4.125l-19.404,49.622
	c-0.564,1.376-1.783,2.282-3.127,2.346c-1.438,0.061-2.688-0.78-3.312-2.125c-18.346-38.78-54.249-62.876-93.75-62.876
	c-58.282,0.00-105.687,52.502-105.687,117.094c0.00,64.595, 47.405,117.095, 105.687,117.095c 42.375,0.00, 81.251-27.875, 96.721-69.501
	l 48.028-121.312l 5.501-13.594c 21.75-56.032, 53.593-81.155, 103.562-81.376C 467.219,55.28, 512.00,98.905, 512.00,156.72
	C 512.00,214.781, 483.03,236.563, 432.998,254.624z"  />
<glyph unicode="&#xe037;" d="M 225.24,478.255C 319.775,488.38, 392.811,453.41, 441.783,400.064
	c 32.595-35.498, 68.786-100.312, 70.157-168.47c 2.91-143.315-100.847-252.535-232.572-262.726
	c-92.194-7.092-164.512,30.097-210.514,80.254C 31.041,90.278, 1.353,145.998, 0.041,219.562
	c-1.315,74.19, 29.47,133.568, 64.813,174.475C 100.577,435.38, 153.61,470.629, 225.24,478.255z M 359.59,213.562
	c 34.096-43.53, 95.913-72.062, 98.255,10.00c 1.062,37.815-13.78,83.567-30.095,110.316c-31.719,52.00-103.35,99.938-186.448,94.251
	c-93.253-6.342-163.385-71.844-182.449-156.441c-6.966-30.874-13.655-77.50, 10.001-88.22c 23.377-10.563, 54.598,9.782, 70.193,28.062
	c 34.75,40.846, 28.315,104.971, 26.065,162.474C 264.179,346.002, 305.305,282.75, 359.59,213.562z"  />
<glyph unicode="&#xe038;" d="M 300.126,464.118C 317.563,473.90, 325.188,480.242, 325.188,480.242L 158.625,480.242 c-33.376,0.00-126.063-37.904-126.063-126.403
			c0.00-88.531, 96.125-107.501, 131.001-106.096c-19.562-23.875-2.812-45.654, 7.687-56.842c 10.438-11.251, 8.313-14.752-4.186-14.752
			c-12.562,0.00-167.251-1.687-167.251-112.438c0.00-110.749, 205.562-118.749, 273.127-59.062c 67.562,59.69, 52.938,142.00, 0.685,179.19
			c-52.249,37.217-71.747,54.781-38.311,84.279c 33.437,29.50, 59.937,53.376, 59.937,108.188c0.00,54.813-45.312,82.845-45.312,82.845
			S 282.687,454.274, 300.126,464.118z M 274.312,69.337c0.00-47.779-40.562-70.938-109.437-70.938C 95.938-1.601, 59.00,32.806, 59.00,84.089
			c0.00,51.312, 50.188,76.592, 144.25,76.592C 228.75,141.026, 274.312,117.151, 274.312,69.337z M 174.687,269.558
			c-82.938,0.00-120.561,193.811-22.999,193.811C 227.624,466.213, 284.75,269.558, 174.687,269.558z M 449.499,415.932L 449.499,478.962 l-32.56,0.00 l0.00-63.03 
			l-63.751,0.00 l0.00-32.72 l 63.751,0.00 l0.00-63.123 l 32.56,0.00 L 449.499,383.212 l 62.688,0.00 l0.00,32.72 L 449.499,415.932 z"  />
<glyph unicode="&#xe039;" d="M 416.01,478.462c-52.531-28.624-106.72-4.467-145.782,0.00
	C 97.761,498.244, 42.948,322.993, 168.605,252.744c-32.346-14.624-30.221-88.907, 4.406-99.469
	c-81.625-8.154-96.784-108.375-53.001-149.248c 53.251-49.689, 217.062-46.375, 265.094,0.00c 33.529,32.435, 38.218,99.248, 8.842,130.061
	c-26.781,28.157-161.124,32.406-159.062,76.531c 1.44,30.877, 50.032,26.00, 79.533,38.282c 55.469,23.094, 88.093,92.221, 66.281,145.408
	c 12.374,2.00, 22.938,5.594, 35.312,7.623C 416.01,427.432, 416.01,452.932, 416.01,478.462z M 203.946,317.745
	c-64.656,122.688, 148.688,113.907, 83.971,0.00C 266.698,304.059, 224.916,302.683, 203.946,317.745z M 323.262,76.714
	c 5.718-55.001-122.189-57.439-137.002-19.126c-12.438,32.281, 3.062,41.437, 39.782,49.75
	C 267.636,116.775, 319.415,113.527, 323.262,76.714z"  />
<glyph unicode="&#xe03a;" d="M 479.062-15.626L 265.155,472.999C 263.376,477.251, 259.376,480.00, 254.938,480.00l0.00,0.00
	c-4.438,0.00-8.438-2.749-10.217-7.001L 32.938-15.594c-1.50-3.657-1.187-7.843, 0.874-11.155C 35.875-30.00, 39.376-32.00, 43.126-32.00L 224.00-32.00 l0.00,96.00 
	l-64.032,32.00l0.00,32.00 L 224.00,96.00l0.00,96.00 l 64.00,0.00 l0.00-64.00 l 64.032,32.00l0.00-32.00 L 288.00,96.00l0.00-32.00 l 96.032,64.00l0.00-32.00 L 288.00,32.00l0.00-64.00 l 180.874,0.00 c 3.75,0.00, 7.251,1.936, 9.314,5.251
	C 480.25-23.437, 480.563-19.251, 479.062-15.626z"  />
<glyph unicode="&#xe03b;" d="M 384.00,320.00c-53.03,0.00-96.00-42.97-96.00-96.00c0.00-52.97, 42.97-96.00, 96.00-96.00
			c 52.938,0.00, 96.00,43.03, 96.00,96.00C 480.00,277.03, 436.938,320.00, 384.00,320.00z M 128.00,320.00c-53.03,0.00-96.00-42.97-96.00-96.00c0.00-52.97, 42.97-96.00, 96.00-96.00
			c 52.97,0.00, 96.00,43.03, 96.00,96.00C 224.00,277.03, 180.97,320.00, 128.00,320.00z"  />
<glyph unicode="&#xe03c;" d="M 377.50,302.375l-89.062,0.00 l0.00,65.001 c0.00,19.936, 20.623,24.56, 30.248,24.56
	c 9.562,0.00, 57.533,0.00, 57.533,0.00L 376.219,479.658 L 310.279,480.00c-89.967,0.00-110.499-65.408-110.499-107.344l0.00-70.281 L 134.50,302.375 L 134.50,212.00 l 65.28,0.00 
	c0.00-116.032,0.00-244.00,0.00-244.00l 88.657,0.00 c0.00,0.00,0.00,129.28,0.00,244.00l 75.311,0.00 L 377.50,302.375z"  />
<glyph unicode="&#xe03d;" d="M 160.157,351.936c-0.125,0.502,0.00,32.032,0.00,32.032L 160.157,480.00 L 32.375,351.936l 95.843,0.00 
			C 128.218,351.936, 160.313,351.501, 160.157,351.936z M 450.877,415.75c-9.626,15.968-59.907,26.749-86.00,26.749
			c-26.064,0.00-67.251,0.00-67.251,0.00s-22.471,31.469-73.03,36.438c-40.813,4.00-32.471-12.282-32.471-30.938l0.00-128.064 L 64.313,319.935 
			c0.00,0.00-32.313,8.595-32.313-13.687c0.00-41.344, 5.501-175.936, 94.749-189.28c 105.564-15.814, 121.469,10.218, 121.469,16.00
			c0.00,23.968, 4.096,52.00, 4.096,52.00s 40.938-48.157, 87.562-46.406c 45.782,1.75, 55.405-28.375, 55.405-54.97c0.00-26.624,0.00-49.405,0.00-49.405
			s-0.186-18.156-27.654-18.156c-27.438,0.00-50.781,0.00-50.781,0.00s-19.219,2.028-19.219,22.028c0.00,19.972, 12.093,25.315, 23.094,25.315
			c 10.967,0.00, 19.22-1.344, 19.22-1.344l0.00,36.00 c0.00,0.00-86.253,12.028-86.253-53.344C 253.687-20.595, 288.00-32.00, 325.062-32.00s 60.406,0.00, 60.406,0.00
			S 480.00-31.03, 480.00,176.938C 480.00,384.906, 460.471,399.75, 450.877,415.75z M 340.877,235.562c0.00,0.00, 6.842,26.688, 27.437,26.688
			c 20.592,0.00, 40.374-41.936, 40.374-41.936S 365.562,235.562, 340.877,235.562z"  />
<glyph unicode="&#xe03e;" d="M 223.501,446.438c-61.078-26.563-118.032-59.53-147.469-97.779c-56.656-73.69-58.841-173.783-12.217-248.72
	C 105.735,210.627, 158.519,335.19, 223.501,446.438 M 478.58,446.188c-139.312-98.093-258.25-251.968-353.734-409.907
	c-4.266,2.97, 70.032-35.28, 114.499-35.28c 61.517,0.00, 122.454,27.843, 163.61,81.28C 485.203,189.282, 479.457,480.626, 478.58,446.188z"  />
<glyph unicode="&#xe03f;" d="M 280.688-32.00c-81.312,0.00-146.97,19.404-197.03,58.313C 27.907,69.501,0.00,131.344,0.00,211.875
	c0.00,78.813, 27.219,143.562, 81.657,194.313C 134.563,455.405, 199.875,480.00, 277.686,480.00c 59.814,0.00, 112.846-18.438, 159.22-55.219
	C 486.969,385.062, 512.00,335.437, 512.00,275.936c0.00-49.747-16.125-93.811-48.375-132.125c-33.907-40.278-74.752-60.406-122.438-60.406
	c-25.187,0.00-43.03,9.034-53.469,27.095c-23.155-18.061-47.344-27.095-72.53-27.095c-29.405,0.00-53.28,13.002-71.53,39.034
	c-16.47,23.625-24.688,50.998-24.688,82.186c0.00,39.939, 12.655,77.50, 38.031,112.656c 27.53,38.221, 60.153,57.344, 97.747,57.344
	c 14.596,0.00, 25.876-1.875, 33.751-5.654c 8.563-4.157, 17.062-12.157, 25.501-24.032c 1.50,10.72, 4.063,17.875, 7.811,21.50
	c 3.689,3.562, 10.813,5.373, 21.376,5.373c 22.00,0.00, 33.002-8.749, 33.002-26.342c0.00-1.907-0.157-3.968-0.503-6.189l-23.404-145.124
	c-4.406-27.03-6.563-42.156-6.563-45.437c0.00-7.907, 4.189-11.847, 12.596-11.847c 7.718,0.00, 18.374,4.909, 32.00,14.688
	c 18.125,13.062, 32.00,31.625, 41.562,55.718c 8.592,21.469, 12.845,44.721, 12.845,69.658c0.00,47.625-16.845,85.811-50.656,114.499
	C 362.499,418.499, 322.969,432.00, 275.404,432.00c-60.436,0.00-110.592-20.781-150.403-62.314C 85.155,328.125, 65.28,276.374, 65.28,214.438
	c0.00-63.814, 20.908-112.845, 62.752-147.062c 38.281-31.312, 89.343-46.97, 153.154-46.97c 59.501,0.00, 109.188,17.469, 149.188,52.406
	c 5.875,6.874, 14.97,16.874, 27.188,30.00c 7.407,7.529, 16.47,11.344, 27.251,11.344c 5.687,0.00, 10.624-2.281, 14.72-6.845
	c 4.125-4.592, 6.153-9.811, 6.153-15.654c0.00-7.722-4.249-17.875-12.841-30.471c-6.877-10.313-14.125-19.094-21.658-26.313
	c-23.344-21.875-53.062-38.748-89.187-50.592C 349.062-26.596, 315.312-32.00, 280.688-32.00z M 272.374,327.155
	c-22.343,0.00-42.218-19.123-59.687-57.405c-15.001-32.438-22.47-61.532-22.47-87.376c0.00-33.28, 13.033-49.907, 39.094-49.907
	c 17.437,0.00, 33.907,21.469, 49.376,64.378c 13.28,36.342, 19.875,65.718, 19.875,88.153c0.00,10.502-1.843,19.565-5.532,27.19
	C 288.499,322.157, 281.625,327.155, 272.374,327.155z"  />
<glyph unicode="&#xe040;" d="M 256.00,480.00C 114.613,479.968,0.00,365.387,0.00,224.00c0.00-141.391, 114.613-256.00, 256.00-256.00c 141.391,0.00, 256.00,114.609, 256.00,256.00
	C 512.00,365.387, 397.391,479.968, 256.00,480.00z M 412.857,347.264c 24.963-31.714, 40.619-70.989, 42.586-113.892
	c-28.901,6.127-56.21,9.125-81.676,9.125l0.00,0.00l-0.188,0.00 c-20.466,0.00-39.714-1.842-57.837-5.061c-4.438,10.811-8.872,21.184-13.374,31.122
	C 342.741,286.242, 381.485,311.458, 412.857,347.264z M 256.00,423.726c 47.12,0.00, 90.334-16.469, 124.548-43.902
	c-26.187-31.34-60.773-54.025-98.08-70.084c-26.247,50.742-51.588,87.051-68.93,109.234C 227.254,421.975, 241.41,423.726, 256.00,423.726z
	 M 167.762,402.915c 13.873-16.373, 41.652-52.40, 71.274-108.642c-60.274-17.969-120.986-22.154-157.73-22.154c-1.034,0.00-2.096,0.00-3.094,0.00
	l-0.032,0.00 c-6.188,0.00-11.50,0.125-15.966,0.25C 76.554,329.705, 115.832,377.20, 167.762,402.915z M 56.274,224.00
	c0.00,0.938, 0.032,1.875, 0.096,2.873c 5.686-0.217, 12.997-0.406, 21.809-0.406l 0.032,0.00 c 40.151,0.282, 110.267,3.625, 181.29,26.061
	c 3.874-8.47, 7.686-17.281, 11.499-26.468c-47.431-15.84-84.802-41.118-112.425-66.302c-26.621-24.246-44.589-48.215-55.087-64.24
	C 74.087,130.322, 56.274,175.004, 56.274,224.00z M 256.00,24.275c-44.462,0.00-85.426,14.686-118.673,39.371
	c 7.093,11.62, 22.218,33.931, 46.34,57.022c 24.809,23.776, 59.055,48.275, 103.798,62.837c 15.186-42.621, 28.934-91.332, 39.432-146.171
	C 304.807,28.93, 280.967,24.275, 256.00,24.275z M 369.019,59.707c-10.126,49.619-22.873,94.302-36.84,134.232
	c 12.968,1.844, 26.59,2.906, 40.965,2.906l 0.499,0.00 l 0.032,0.00 l 0.029,0.00 c 23.843,0.00, 49.993-2.967, 78.396-9.404
	C 442.29,134.636, 411.699,89.14, 369.019,59.707z"  />
<glyph unicode="&#xe041;" d="M 313.278,280.938l 84.842,0.00 c 15.689,0.00, 28.47,12.749, 28.47,28.471L 426.59,394.845 
			c0.00,15.718-12.78,28.467-28.47,28.467l-84.842,0.00 c-15.751,0.00-28.503-12.749-28.503-28.467l0.00-85.437 
			C 284.775,293.687, 297.527,280.938, 313.278,280.938z M 87.81,368.752c-90.173,0.00-87.799-55.782-87.799-55.782L 0.011,224.00 
			c0.00-23.75, 28.483-28.499, 28.483-28.499l 28.438,0.00 l0.00-87.437 c-32.483-3.939-55.139-20.938-55.139-41.312
			c0.00-23.251, 44.326-42.063, 83.638-42.063c 39.328,0.00, 83.674,16.998, 83.674,40.313c0.00,20.061-23.219,38.685-55.018,42.873l-0.17,87.626
			l 27.28,0.00 c 27.312,0.00, 29.673,28.499, 29.673,28.499l0.00,90.156 C 170.872,368.752, 87.81,368.752, 87.81,368.752z M 510.244,310.624
			c0.00,28.438-28.467,28.438-28.467,28.438l-26.125,0.00 l0.00-74.125 c0.00-17.812-14.249-13.062-14.249-13.062L 266.401,251.875 
			c-13.094,0.00-13.094,13.062-13.094,13.062l 0.627,71.75l-27.469,2.624c-30.266,0.00-27.11-29.312-27.11-29.312l0.00-57.562 
			c0.00,0.00-4.234-28.438, 24.25-28.438l 32.672,0.00 l0.00-172.061 c0.00-29.689, 27.312-26.125, 27.312-26.125l 30.845,0.00 
			c 28.499,0.00, 27.312,27.312, 27.312,27.312l0.00,85.438 c0.00,15.376, 14.218,19.562, 14.218,19.562c 8.313,0.00, 13.062-18.375, 13.062-18.375l0.00-85.50 
			c0.00-29.562, 39.158-29.562, 39.158-29.562l 14.842,0.00 c 28.471,0.00, 30.812,27.251, 30.812,27.251L 455.652,224.00l 24.905,0.00 
			c 28.468,0.00, 31.438,30.845, 31.438,30.845L 510.244,310.624z"  />
<glyph unicode="&#xe042;" d="M 185.513,281.123c 115.888,33.251, 212.732-34.656, 212.732-34.656l-79.811-21.469l-23.002,42.595
	c-21.626,3.936-46.186,5.187-72.406,0.781l 54.281-110.032l 234.688,67.408c0.00,0.00-85.127,133.219-338.97,90.157
	c-1.469-0.25-2.813-0.595-4.282-0.813l-24.64,49.843l-73.03-8.282l 29.783-60.688c-154.049-63.376-85.783-212.905-85.783-212.905
	l 235.015,67.437L 185.513,281.123z M 78.636,160.467c0.00,0.00-22.624,49.876, 43.251,92.596l 35.062-71.501L 78.636,160.467z"  />
<glyph unicode="&#xe043;" d="M 475.907,287.313l-19.469,0.00 l0.00,0.00c0.00,0.00-3.469,0.00-4.032,0.00c-31.939,0.00-37.469,28.375-37.469,28.375l 0.749-0.531
	C 411.936,406.75, 342.343,479.467, 247.251,480.062l0.00-0.125 l-77.11,0.00 l 1.095,0.00 C 76.467,479.342,0.00,403.813,0.00,308.936c0.00-0.375,0.00,0.346,0.00,0.346l0.00,0.00
	l0.00-170.688 l0.00,0.00c0.00-94.812, 76.064-170.032, 171.171-170.596l0.00-0.061 l 171.171,0.00 l0.00,0.125 C 427.936-30.188, 512.00,43.781, 512.00,138.594l0.00,0.00l0.00,115.03 
	C 512.00,271.813, 494.188,287.313, 475.907,287.313z M 161.642,352.75c 0.25,0.00, 0.029-0.032, 0.029-0.032l0.00,0.00l 95.079-0.032l0.00,0.032 
	c 19.018-0.406, 31.143-17.718, 31.143-34.467c0.00-16.752-12.125-30.938-31.143-30.938l0.00,0.00L 161.67,287.313 c0.00,0.00-0.938,0.00-1.187,0.00
	c-17.046,0.00-34.358,14.436-34.358,31.437C 126.125,335.749, 144.608,352.75, 161.642,352.75z M 337.312,94.687L 337.312,94.687L 161.67,94.687 
	l0.00,1.002 c0.00,0.00-0.938,0.00-1.187,0.00c-17.046,0.00-34.077,16.374-34.077,33.404c0.00,17.002, 16.97,30.502, 34.016,30.502c 0.25,0.00, 0.938,0.00, 0.938,0.00
	l-0.032,0.00 l 177.983,0.00 l-0.499,0.00 c 19.062,0.00, 29.123-15.189, 29.123-31.971C 367.936,110.875, 356.343,94.687, 337.312,94.687z"  />
<glyph unicode="&#xe044;" d="M 205.433,239.376c 10.346,5.312, 18.141,11.248, 23.501,17.718c 9.517,11.594, 14.313,26.97, 14.313,46.00
			c0.00,18.50-4.752,34.407-14.205,47.594C 213.417,372.375, 186.732,383.469, 149.151,384.00L-0.003,384.00 l0.00-312.125 l 139.046,0.00 
			c 15.673,0.00, 30.205,1.405, 43.609,4.157c 13.344,2.873, 25.018,8.032, 34.829,15.625c 8.765,6.749, 16.016,14.906, 21.843,24.686
			c 9.171,14.655, 13.734,31.219, 13.734,49.722c0.00,17.936-4.016,33.123-12.016,45.778C 233.027,224.406, 221.151,233.533, 205.433,239.376
			z M 61.574,329.718l 67.094,0.00 c 14.781,0.00, 26.985-1.562, 36.483-4.812c 11.018-4.717, 16.563-14.218, 16.563-28.813
			c0.00-13.094-4.218-22.218-12.499-27.437c-8.438-5.124-19.28-7.687-32.672-7.687L 61.574,260.969 L 61.574,329.718 z M 167.699,131.562
			c-7.469-3.626-17.888-5.529-31.248-5.529L 61.574,126.033 l0.00,83.155 l 75.923,0.00 c 13.248-0.062, 23.517-1.812, 30.797-5.188
			c 13.123-6.064, 19.687-17.188, 19.687-33.469C 187.98,151.376, 181.231,138.374, 167.699,131.562z M 509.997,216.093
			c-2.781,18.096-8.89,33.971-18.186,47.782c-10.394,15.562-23.533,26.906-39.469,34.157c-15.875,7.123-33.767,10.841-53.61,10.841
			c-33.439,0.00-60.627-10.717-81.548-32.029c-20.97-21.344-31.453-52.064-31.453-92.00c0.00-42.72, 11.577-73.469, 34.797-92.438
			c 23.219-18.938, 50.00-28.406, 80.329-28.406c 36.765,0.00, 65.405,11.28, 85.859,33.626c 13.107,14.186, 20.516,28.156, 22.108,41.779l-60.876,0.00 
			c-3.594-6.842-7.654-12.062-12.343-15.872c-8.438-7.066-19.501-10.596-33.078-10.596c-12.797,0.00-23.782,2.874-32.845,8.656
			c-14.982,9.344-22.967,25.532-23.904,48.78l 166.157,0.00 C 512.23,190.313, 511.559,205.533, 509.997,216.093z M 347.264,210.064
			c 2.17,15.091, 7.453,26.966, 15.889,35.811c 8.394,8.72, 20.297,13.155, 35.594,13.155c 14.063,0.00, 25.862-4.157, 35.344-12.435
			c 9.517-8.253, 14.829-20.47, 15.907-36.531L 347.264,210.064 z M 480.013,352.00l-160.00,0.00 l0.00-32.00 l 160.00,0.00 L 480.013,352.00 z"  />
<glyph unicode="&#xe045;" d="M 280.874-32.00L 231.11-32.00 C 121.296-32.00, 32.00,59.907, 32.00,172.812l0.00,256.00 C 32.00,457.094, 54.266,480.00, 81.782,480.00
	c 27.469,0.00, 49.779-22.906, 49.779-51.188l0.00-256.00 c0.00-56.471, 44.672-102.406, 99.549-102.406l 49.764,0.00 c 54.908,0.00, 99.564,40.188, 99.564,89.594
	c0.00,50.499-26.781,89.593-49.751,89.593L 231.11,249.593 c-27.517,0.00-49.782,22.97-49.782,51.219c0.00,28.282, 22.266,51.188, 49.782,51.188l 99.577,0.00 
	C 413.002,352.00, 480.00,265.907, 480.00,160.00C 480.00,54.156, 390.656-32.00, 280.874-32.00z"  />
<glyph unicode="&#xe046;" d="M 512.00,288.00L 320.00,288.00 L 320.00,480.00 L 192.00,480.00 l0.00-192.00 L0.00,288.00 l0.00-128.00 l 192.00,0.00 l0.00-192.00 l 128.00,0.00 L 320.00,160.00 l 192.00,0.00 L 512.00,288.00 z"  />
<glyph unicode="&#xe047;" d="M 163.814,102.624c 12.326,4.378, 23.731,10.096, 34.218,17.315c 10.467,7.187, 20.326,15.469, 29.67,24.938
	c 9.312,9.497, 18.877,19.404, 28.656,29.497c 8.812-10.093, 18.141-20.00, 27.939-29.497c 9.767-9.469, 20.108-17.751, 31.046-24.938
	c 10.938-7.22, 22.749-12.938, 35.344-17.315c 12.593-4.343, 26.032-6.624, 40.50-6.624c 18.531,0.00, 35.50,3.312, 50.531,10.064
	c 15.187,6.655, 27.938,15.968, 38.124,27.654c 10.282,11.907, 18.189,25.593, 23.783,41.407C 509.28,190.72, 512.00,207.75, 512.00,225.75
	c0.00,18.032-2.72,34.656-8.374,49.936c-5.594,15.251-13.501,28.563-23.783,39.907c-10.186,11.283-22.78,20.217-37.654,26.72
	C 427.28,348.749, 410.471,352.00, 391.814,352.00c-14.877,0.00-28.688-2.342-41.533-6.938c-12.78-4.656-24.655-10.749-35.562-18.406
	c-10.97-7.594-21.251-16.531-30.797-26.717c-9.564-10.128-18.752-20.563-27.564-31.19c-9.328,11.126-18.717,21.625-28.294,31.564
	c-9.565,9.936-19.798,18.749-30.72,26.343c-10.985,7.657-22.845,13.75-35.657,18.406c-12.826,4.595-26.874,6.938-42.266,6.938
	c-18.592,0.00-35.357-3.376-50.278-10.061c-14.909-6.72-27.501-15.75-37.734-27.062c-10.253-11.315-18.048-24.752-23.376-40.253
	C 2.64,259.126,0.00,242.375,0.00,224.375c0.00-18.093, 2.797-34.966, 8.358-50.656c 5.594-15.751, 13.782-29.28, 24.486-40.563
	c 10.688-11.437, 23.514-20.436, 38.391-27.091C 86.141,99.312, 103.143,96.00, 122.233,96.00C 137.642,96.00, 151.437,98.281, 163.814,102.624z
	 M 81.03,182.032c-9.795,10.655-14.672,24.249-14.672,40.905c0.00,15.28, 4.784,29.03, 14.297,41.312
	c 9.549,12.25, 22.487,18.375, 38.765,18.375c 8.861,0.00, 17.722-2.00, 26.563-5.904c 8.861-3.907, 17.36-8.909, 25.485-14.909
	c 8.173-6.00, 15.939-12.624, 23.392-19.747c 7.485-7.187, 14.00-13.782, 19.562-19.783c-5.562-6.47-11.843-13.062-18.829-19.782
	c-6.982-6.78-14.451-12.78-22.375-18.061c-7.907-5.251-16.33-9.719-25.126-13.158c-8.874-3.562-17.734-5.188-26.547-5.188
	C 104.313,166.093, 90.813,171.376, 81.03,182.032z M 364.938,170.905c-8.624,3.283-16.845,7.533-24.749,12.813
	c-7.907,5.376-15.469,11.407-22.47,18.00c-6.938,6.78-13.469,13.657-19.469,20.562c 5.564,6.00, 11.907,12.596, 18.876,19.783
	c 6.999,7.123, 14.311,13.747, 22.00,19.747c 7.594,6.00, 15.812,11.002, 24.436,14.909c 8.656,3.904, 17.626,5.904, 26.877,5.904
	c 17.28,0.00, 30.842-5.747, 40.842-17.344c 10.00-11.593, 15.033-25.405, 15.033-41.654c0.00-16.189-4.595-29.843-14.00-40.906
	c-9.251-11.062-22.595-16.627-39.75-16.627C 382.72,166.093, 373.594,167.719, 364.938,170.905z"  />
<glyph unicode="&#xe048;" d="M 480.00,64.00L 480.00,192.00 l0.00,22.499 L 480.00,224.00 L 269.687,224.00 L 269.687,384.00 l 64.00,0.00 L 333.687,448.00 l-160.00,0.00 l0.00-64.00 l 64.00,0.00 l0.00-160.00 L 32.00,224.00 l0.00-9.501 L 32.00,192.00 l0.00-128.00 L0.00,64.00 l0.00-64.00 
	l 96.00,0.00 l0.00,64.00 L 64.00,64.00 L 64.00,192.00 l 173.687,0.00 l0.00-128.00 l-32.00,0.00 l0.00-64.00 l 96.00,0.00 l0.00,64.00 l-32.00,0.00 L 269.687,192.00 L 448.00,192.00 l0.00-128.00 l-32.00,0.00 l0.00-64.00 l 96.00,0.00 l0.00,64.00 L 480.00,64.00 z"  />
<glyph unicode="&#xe049;" d="M 480.00,223.952l-160.00,128.00L 320.00,288.00 L 160.00,288.00 l0.00-128.00 l 160.00,0.00 l0.00-64.032 L 480.00,223.952z M 256.00,64.00L 64.00,64.00 L 64.00,384.00 l 192.00,0.00 l0.00-32.00 l 32.00,0.00 L 288.00,400.00 c0.00,8.845-7.936,16.00-16.812,16.00l-224.00,0.00 
			C 38.375,416.00, 32.00,408.845, 32.00,400.00l0.00-352.00 c0.00-8.845, 6.375-16.00, 15.187-16.00l 224.00,0.00 c 8.877,0.00, 16.812,7.155, 16.812,16.00l0.00,48.00 l-32.00,0.00 L 255.999,64.00 z"  />
<glyph unicode="&#xe04a;" d="M 352.00,223.952l-160.00,128.00L 192.00,288.00 L 32.00,288.00 l0.00-128.00 l 160.00,0.00 l0.00-64.032 L 352.00,223.952z M 463.188,416.00l-224.00,0.00 C 230.375,416.00, 224.00,408.845, 224.00,400.00l0.00-48.00 l 32.00,0.00 L 256.00,384.00 l 192.00,0.00 
			l0.00-320.00 L 256.00,64.00 l0.00,32.00 l-32.00,0.00 l0.00-48.00 c0.00-8.845, 6.375-16.00, 15.188-16.00l 224.00,0.00 c 8.877,0.00, 16.812,7.155, 16.812,16.00L 480.00,400.00 C 480.00,408.845, 472.064,416.00, 463.188,416.00z"  />
<glyph unicode="&#xe04b;" d="M 32.00,0.00l 63.984,0.00 l0.00,64.032 L 32.00,64.032 L 32.00,0.00 z M 128.00,0.00l 64.016,0.00 L 192.016,159.968 L 128.00,159.968 L 128.00,0.00 z M 223.984,0.00
			L 288.00,0.00 L 288.00,256.016 l-64.016,0.00 L 223.984,0.00 z M 320.032,0.00l 63.936,0.00 L 383.968,352.00 l-63.936,0.00 L 320.032,0.00 z M 415.968,448.00l0.00-448.00 L 480.00,0.00 L 480.00,448.00 L 415.968,448.00 z"  />
<glyph unicode="&#xe04c;" d="M 488.755,368.117L 192.099,393.541c-12.857,0.00-27.235-10.406-23.248-23.235
			l 47.872-178.358c 5.44-16.128, 17.971-16.281, 30.812-16.281l 223.846,0.00 c 12.81,0.00, 23.248,10.406, 23.248,23.219l 17.376,142.826
			C 512.006,354.508, 504.88,366.681, 488.755,368.117z M 444.256,148.757L 192.772,148.757 L 113.367,438.885L 16.57,446.648
			c-34.861-17.687-3.907-50.906-3.907-50.906l 64.579-1.42l 85.718-294.906l 279.545,0.00 C 483.692,127.947, 444.256,148.757, 444.256,148.757z
			 M 220.099,82.696c-22.467,0.00-40.64-18.157-40.64-40.624c0.00-22.471, 18.173-40.721, 40.64-40.721c 22.471,0.00, 40.688,18.25, 40.688,40.721
			C 260.787,64.539, 242.57,82.696, 220.099,82.696z M 404.191,81.976c-22.249,0.00-40.311-18.061-40.311-40.31
			c0.00-22.25, 18.062-40.314, 40.311-40.314c 22.253,0.00, 40.221,18.064, 40.221,40.314C 444.412,63.915, 426.444,81.976, 404.191,81.976z"  />
<glyph unicode="&#xe04d;" d="M 499.299,35.92L 358.313,176.825c 50.313,75.859, 42.063,179.107-24.781,245.937c-76.266,76.297-199.967,76.33-276.265,0.00
	c-76.311-76.282-76.311-200.016,0.00-276.326c 66.829-66.861, 170.00-75.11, 245.875-24.813l 140.905-140.953c0.00,0.00, 26.752-28.499, 55.251,0.00
	S 499.299,35.92, 499.299,35.92z M 278.269,201.715c-45.673-45.718-120.047-45.718-165.75,0.00c-45.718,45.719-45.718,120.093,0.00,165.799
	c 45.703,45.718, 120.077,45.718, 165.75,0.00C 324.003,321.808, 324.003,247.434, 278.269,201.715z"  />
<glyph unicode="&#xe04e;" d="M0.00,275.203l0.00-102.391 c 113.094,0.00, 204.812-91.687, 204.812-204.812l 102.375,0.00 C 307.188,137.626, 169.687,275.203,0.00,275.203z M0.00,480.00
			l0.00-102.391 c 226.189,0.00, 409.626-183.421, 409.626-409.609L 512.00-32.00 C 512.00,250.765, 282.812,480.00,0.00,480.00z M 51.187,70.406
			C 22.906,70.406,0.00,47.501,0.00,19.188C0.00-9.095, 22.906-32.00, 51.187-32.00c 28.314,0.00, 51.219,22.905, 51.219,51.188
			C 102.406,47.501, 79.501,70.406, 51.187,70.406z"  />
<glyph unicode="&#xe04f;" d="M 321.936,480.00l-57.654,0.00 l 0.468-32.00l-13.937,0.00 l 0.688,32.00l-57.767,0.00 L 96.00-32.00l 143.719,0.00 l 0.72,32.00l 30.842,0.00 l 0.502-32.00L 416.00-32.00 L 321.936,480.00z M 249.188,384.00
	l 16.374,0.00 l 0.503-32.00l-17.626,0.00 L 249.188,384.00z M 247.002,288.00l 20.028,0.00 l 0.438-32.00L 246.25,256.00 L 247.002,288.00z M 244.781,192.00l 23.657,0.00 l 0.467-32.00l-24.841,0.00 
	L 244.781,192.00z M 241.907,64.00l 0.688,32.00l 27.279,0.00 l 0.468-32.00L 241.907,64.00 z"  />
<glyph unicode="&#xe050;" d="M 160.00,288.00l 192.00,0.00 l0.00-32.00 l 64.00,64.00l-64.00,64.00l0.00-32.00 L 128.00,352.00 l-32.00-32.00l0.00-128.00 l 64.00,64.00L 160.00,288.00 z M 352.00,160.00L 160.00,160.00 l0.00,32.00 l-64.00-64.00l 64.00-64.00l0.00,32.00 l 224.00,0.00 l 32.00,32.00L 416.00,256.00 l-64.00-64.00L 352.00,160.00 z
			"  />
<glyph unicode="&#xe051;" d="M 160.00,128.00l 96.00-96.00l 96.00,96.00l-64.00,0.00 L 288.00,320.00 l 64.00,0.00 l-96.00,96.00l-96.00-96.00l 64.00,0.00 l0.00-192.00 L 160.00,128.00 z M 128.00,480.00l0.00-32.00 l 256.00,0.00 L 384.00,480.00 L 128.00,480.00 
			z M 128.00-32.00l 256.00,0.00 l0.00,32.00 L 128.00,0.00 L 128.00-32.00 z"  />
<glyph unicode="&#xe052;" d="M 128.016,320.017l0.00-192.001 l 255.969,0.00 L 383.985,320.017 L 128.016,320.017 z M 320.016,415.984L 191.984,415.984 l 64.00-63.968L 320.016,415.984z M 191.984,32.016
			l 128.031,0.00 l-64.031,64.032L 191.984,32.016z"  />
<glyph unicode="&#xe053;" d="M 127.995,416.00L 64.00,351.995l 79.993-80.006l-47.996-48.004l 159.987,0.00 L 255.984,383.998 
			l-47.996-48.004L 127.995,416.00z M 368.006,176.012l 47.996,48.036L 256.048,224.048 l0.00-160.045 l 47.964,48.004L 384.006,32.00L 448.00,96.005
			L 368.006,176.012z"  />
<glyph unicode="&#xe054;" d="M 352.00,256.00L 160.00,256.00 l0.00,64.00 l-96.00-96.00l 96.00-96.00l0.00,64.00 l 192.00,0.00 l0.00-64.00 l 96.00,96.00l-96.00,96.00L 352.00,256.00 z M 480.00,352.00l0.00-256.00 l 32.00,0.00 
			L 512.00,352.00 L 480.00,352.00 z M0.00,96.00l 32.00,0.00 L 32.00,352.00 L0.00,352.00 L0.00,96.00 z"  />
<glyph unicode="&#xe055;" d="M 127.952,128.00L 383.92,128.00 L 383.92,320.00 L 127.952,320.00 L 127.952,128.00 z M 32.00,159.907l 63.984,64.00L 32.00,287.936L 32.00,159.907 z M 415.968,223.907l 64.032-64.00L 480.00,287.936 
			L 415.968,223.907z"  />
<glyph unicode="&#xe056;" d="M 422.093,345.251L 448.00,319.75L 448.00,416.00 l-97.062,0.00 l 25.501-25.501L 255.188,269.251L 133.875,390.563L 159.188,416.00L 64.00,416.00 l0.00-96.499 l 25.155,25.686
	L 210.125,224.00L 89.127,102.656L 64.00,128.188L 64.00,32.00 l 95.062,0.00 l-25.252,25.344l 121.377,121.405l 121.312-121.248L 350.938,32.00L 448.00,32.00 l0.00,96.00 
	l-25.782-25.312L 300.845,224.00L 422.093,345.251z"  />
<glyph unicode="&#xe057;" d="M 176.00,368.00l 48.00,48.00L 64.00,416.00 l0.00-160.00 l 48.00,48.00l 80.00-80.00l 64.00,64.00L 176.00,368.00z M 400.00,144.00l-80.00,80.00l-64.00-64.00l 80.00-80.00
			l-48.00-48.00l 160.00,0.00 L 448.00,192.00 L 400.00,144.00z"  />
<glyph unicode="&#xe058;" d="M 400.00,208.00c0.00-79.405-64.596-144.00-144.00-144.00s-144.00,64.595-144.00,144.00c0.00,79.405, 64.596,144.00, 144.00,144.00l0.00-32.499 l 97.002,52.998L 256.00,432.00l0.00-32.00 
	C 149.952,400.00, 64.00,314.064, 64.00,208.00c0.00-106.032, 85.952-192.00, 192.00-192.00c 106.032,0.00, 192.00,85.968, 192.00,192.00L 400.00,208.00 z"  />
<glyph unicode="&#xe059;" d="M 64.00,384.00l0.00-63.984 l 384.00,0.00 L 448.00,384.00 L 64.00,384.00 z M 64.00,191.968l 384.00,0.00 l0.00,64.017 L 64.00,255.985 L 64.00,191.968 z M 64.00,64.00l 384.00,0.00 
			l0.00,63.968 L 64.00,127.968 L 64.00,64.00 z"  />
<glyph unicode="&#xe05a;" d="M 480.00,398.266L 430.218,448.00L 256.008,273.803L 81.811,448.00L 32.00,398.266L 206.227,224.025L 32.00,49.812L 81.811,0.00L 256.013,174.235L 430.218,0.016L 480.00,49.812L 305.79,224.021 		z"  />
<glyph unicode="&#xe05b;" d="M 256.00,480.00C 114.624,480.00,0.00,365.376,0.00,224.00s 114.624-256.00, 256.00-256.00s 256.00,114.624, 256.00,256.00S 397.376,480.00, 256.00,480.00z M 369.126,156.125
	l-45.251-45.251L 256.00,178.749l-67.875-67.875l-45.251,45.251L 210.749,224.00l-67.875,67.875l 45.251,45.264L 256.00,269.267l 67.875,67.872
	l 45.251-45.264L 301.251,224.00L 369.126,156.125z"  />
<glyph unicode="&#xe05c;" d="M 256.00,480.00C 114.624,480.00,0.00,365.376,0.00,224.00s 114.624-256.00, 256.00-256.00s 256.00,114.624, 256.00,256.00S 397.376,480.00, 256.00,480.00z M 256.00,32.00
			c-105.875,0.00-192.00,86.125-192.00,192.00S 150.125,416.00, 256.00,416.00s 192.00-86.125, 192.00-192.00S 361.875,32.00, 256.00,32.00z M 313.594,320.00L 256.00,262.406L 198.375,320.00
			L 160.00,281.609L 217.594,224.00L 160.00,166.406L 198.375,128.00L 256.00,185.626L 313.594,128.00L 352.00,166.406L 294.374,224.00L 352.00,281.609L 313.594,320.00z"  />
<glyph unicode="&#xe05d;" d="M 256.00,256.032c-17.687,0.00-32.00-14.313-32.00-32.00s 14.313-32.064, 32.00-32.064s 32.00,14.378, 32.00,32.064S 273.687,256.032, 256.00,256.032z
			 M 383.968,256.032c-17.654,0.00-31.903-14.313-31.903-32.00s 14.249-32.064, 31.903-32.064c 17.719,0.00, 32.032,14.378, 32.032,32.064
			S 401.687,256.032, 383.968,256.032z M 128.00,256.032c-17.687,0.00-32.00-14.313-32.00-32.00s 14.313-32.064, 32.00-32.064c 17.658,0.00, 32.00,14.378, 32.00,32.064
			S 145.658,256.032, 128.00,256.032z"  />
<glyph unicode="&#xe05e;" d="M 416.00,288.00l0.00-32.00 l 96.00,63.501L 416.00,384.00l0.00-32.00 L 288.00,352.00 L 160.00,160.00L0.00,159.501L0.00,96.00 l 192.00,0.00 l 128.00,192.00L 416.00,288.00 z M 183.438,252.845l 37.344,56.00L 192.00,352.00L0.00,352.00 l0.00-64.00 
			l 160.00,0.00 L 183.438,252.845z M 416.00,160.00l-96.00,0.00 l-23.437,35.155l-37.312-56.00L 288.00,96.00l 128.00,0.00 l0.00-32.00 l 96.00,64.499L 416.00,192.00L 416.00,160.00 z"  />
<glyph unicode="&#xe05f;" d="M 256.00,480.00C 114.624,480.00,0.00,365.392,0.00,224.00c0.00-141.376, 114.624-256.00, 256.00-256.00s 256.00,114.624, 256.00,256.00C 512.00,365.392, 397.376,480.00, 256.00,480.00z
	 M 246.749,92.00c-20.343,0.00-34.153,14.97-34.153,34.938c0.00,20.688, 14.186,34.905, 34.153,34.905c 20.688,0.00, 34.125-14.217, 34.562-34.905
	C 281.312,106.97, 267.875,92.00, 246.749,92.00z M 293.188,235.155c-13.812-15.719-19.937-30.717-19.562-47.968l0.00-6.938 l-51.063,0.00 l-0.373,10.00
	c-1.159,19.562, 5.372,39.532, 22.623,59.875c 12.313,14.969, 22.25,27.625, 22.25,40.297c0.00,13.421-8.812,22.64-28.00,23.015
	c-12.656,0.00-28.00-4.592-38.00-11.501l-13.03,41.831c 14.186,8.061, 36.841,15.734, 64.093,15.734c 50.624,0.00, 74.063-28.016, 74.063-59.875
	C 326.188,270.455, 307.75,251.251, 293.188,235.155z"  />
<glyph unicode="&#xe060;" d="M 213.513,122.21l 92.937-92.935L 306.45,151.867 l 153.219,153.235l 15.345-15.312c 8.467-8.502, 22.153-8.502, 30.624,0.00
	c 8.467,8.451, 8.467,22.141,0.00,30.624L 352.418,473.634c-8.471,8.499-22.188,8.499-30.656,0.00c-8.47-8.455-8.47-22.157,0.00-30.64
	l 15.345-15.315L 183.887,274.43L 61.263,274.43 l 92.938-92.906L 0.012-32.008L 213.513,122.21z"  />
<glyph unicode="&#xe061;" d="M 368.00,370.406C 368.00,430.921, 317.875,480.00, 256.00,480.00c-61.844,0.00-112.00-49.079-112.00-109.594c0.00-54.266, 40.406-99.014, 93.312-107.75l0.00-252.032 
	c-32.125-2.406-56.00-10.842-56.00-20.938C 181.312-22.281, 214.749-32.00, 256.00-32.00s 74.656,9.719, 74.656,21.687
	c0.00,10.096-23.844,18.531-56.00,20.938L 274.656,262.656 C 327.594,271.392, 368.00,316.141, 368.00,370.406z M 210.281,393.734
	c-10.812-10.563-25.50-13.392-32.78-6.266c-7.312,7.139-4.438,21.53, 6.374,32.093c 10.812,10.579, 25.501,13.408, 32.812,6.266
	C 223.968,418.704, 221.094,404.313, 210.281,393.734z"  />
<glyph unicode="&#xe062;" d="M 384.00,480.00L 128.00,480.00 l0.00-64.00 l 256.00,0.00 L 384.00,480.00 z M 384.00,0.00L 128.00,0.00 L 128.00,256.00 L 96.00,256.00 l0.00-288.00 l 320.00,0.00 L 416.00,256.00 l-32.00,0.00 L 384.00,0.00 z M 160.00,32.00l 192.00,0.00 
			l0.00,32.00 L 160.00,64.00 L 160.00,32.00 z M 192.00,96.00l 128.00,0.00 l0.00,32.00 L 192.00,128.00 L 192.00,96.00 z M 320.00,192.00L 192.00,192.00 l0.00-32.00 l 128.00,0.00 L 320.00,192.00 z M0.00,383.501L0.00,160.00 l 64.00,0.00 L 64.00,288.00 l 384.00,0.00 l0.00-128.00 l 64.00,0.00 L 512.00,383.501 L0.00,383.501 z M 464.00,320.00
			c-8.845,0.00-16.00,7.155-16.00,16.00s 7.155,16.00, 16.00,16.00s 16.00-7.155, 16.00-16.00S 472.845,320.00, 464.00,320.00z"  />
<glyph unicode="&#xe063;" d="M 447.501,256.50L 287.501,256.50L 287.501,416.50L 223.501,416.50L 223.501,256.50L 63.50,256.50L 63.50,192.50L 223.501,192.50L 223.501,32.50L 287.501,32.50L 287.501,192.50L 447.501,192.50 		z"  />
<glyph unicode="&#xe064;" d="M 256.00,480.00C 114.624,480.00,0.00,365.376,0.00,224.00s 114.624-256.00, 256.00-256.00s 256.00,114.624, 256.00,256.00S 397.376,480.00, 256.00,480.00z M 384.00,192.00l-96.00,0.00 l0.00-96.00 l-64.00,0.00 l0.00,96.00 l-96.00,0.00 
	l0.00,64.00 l 96.00,0.00 l0.00,96.00 l 64.00,0.00 l0.00-96.00 l 96.00,0.00 L 384.00,192.00 z"  />
<glyph unicode="&#xe065;" d="M 128.00,96.00L 128.00,352.00 l 256.00-128.00L 128.00,96.00z"  />
<glyph unicode="&#xe066;" d="M0.00,448.00l0.00-448.00 l 512.00,0.00 L 512.00,448.00 L0.00,448.00 z M 480.00,32.00L 32.00,32.00 L 32.00,416.00 l 448.00,0.00 L 480.00,32.00 z M 96.00,320.00c 17.687,0.00, 32.00,14.33, 32.00,32.00
			s-14.313,32.00-32.00,32.00s-32.00-14.33-32.00-32.00S 78.313,320.00, 96.00,320.00z M 416.00,224.00l-32.00-32.00l-64.00,160.00l-96.00-192.00l-64.00,64.00L 64.00,64.00l 384.00,0.00 L 416.00,224.00z"  />
<glyph unicode="&#xe067;" d="M 398.25-31.933C 409.657-31.965, 512.00,43.722, 512.00,53.379c0.00,9.654-114.531,81.812-124.438,81.812
	c-9.904,0.00-43.155-39.875-52.125-44.313c-8.998-4.436-64.998-2.842-127.404,59.564c-62.438,62.391-83.75,134.218-83.75,145.498
	c0.00,11.283, 52.061,46.141, 53.50,54.314c 1.437,8.172-68.627,129.75-80.00,129.75C 86.406,480.003,0.00,374.989,0.00,366.253
	c0.00-8.749, 7.907-121.328, 150.438-263.812C 292.97-40.061, 386.845-31.872, 398.25-31.933z"  />
<glyph unicode="&#xe068;" d="M 256.00,480.00C 114.595,480.00,0.00,365.405,0.00,224.00c0.00-141.405, 114.595-256.00, 256.00-256.00c 141.404,0.00, 256.00,114.595, 256.00,256.00
	C 512.00,365.405, 397.404,480.00, 256.00,480.00z M 344.938,63.968c-7.188,0.032-65.875-5.155-154.97,83.939C 100.906,236.953, 96.00,307.344, 96.00,312.813
	c0.00,5.453, 53.968,71.11, 61.126,71.11c 7.062,0.00, 50.874-75.987, 50.00-81.11c-0.909-5.046-33.44-26.906-33.44-33.939
	c0.00-7.046, 13.315-51.92, 52.313-90.966c 39.002-38.97, 74.00-40.00, 79.626-37.312c 5.593,2.811, 26.499,27.812, 32.624,27.812
	c 6.156,0.00, 77.75-45.095, 77.75-51.251C 416.00,111.219, 352.125,63.936, 344.938,63.968z"  />
<glyph unicode="&#xe069;" d="M 448.00,448.00L 64.00,448.00 c-17.687,0.00-32.00-14.33-32.00-32.00l0.00-384.00 c0.00-17.67, 14.313-32.00, 32.00-32.00l 384.00,0.00 c 17.687,0.00, 32.00,14.33, 32.00,32.00L 480.00,416.00 
	C 480.00,433.67, 465.687,448.00, 448.00,448.00z M 344.938,68.781c-7.188,0.031-65.875-5.155-154.97,83.938C 100.906,241.767, 96.00,312.157, 96.00,317.625
	c0.00,5.453, 53.968,71.107, 61.126,71.107c 7.062,0.00, 50.874-75.984, 50.00-81.107c-0.909-5.046-33.44-26.905-33.44-33.939
	c0.00-7.046, 13.315-51.92, 52.313-90.967c 39.002-38.97, 74.00-40.00, 79.626-37.314c 5.593,2.812, 26.499,27.813, 32.624,27.813
	c 6.156,0.00, 77.75-45.094, 77.75-51.251C 416.00,116.032, 352.125,68.749, 344.938,68.781z"  />
<glyph unicode="&#xe06a;" d="M 288.00,352.00l0.00-256.00 l 96.00,0.00 L 384.00,352.00 L 288.00,352.00 z M 128.00,96.00l 96.00,0.00 L 224.00,352.00 l-96.00,0.00 L 128.00,96.00 z"  />
<glyph unicode="&#xe06b;" d="M 384.00,416.00l-64.00,0.00 c0.00,35.344-28.656,64.00-64.00,64.00s-64.00-28.656-64.00-64.00l-64.00,0.00 l0.00-64.00 l 256.00,0.00 L 384.00,416.00 z M 224.00,416.00
			c0.00,17.625, 14.358,32.00, 32.00,32.00s 32.00-14.375, 32.00-32.00L 224.00,416.00 z M 416.00,416.00l0.00-96.00 L 96.00,320.00 L 96.00,416.00 L 64.00,416.00 l0.00-448.00 l 384.00,0.00 L 448.00,416.00 L 416.00,416.00 z"  />
<glyph unicode="&#xe06c;" d="M 256.00,480.00c-70.579,0.00-128.00-50.25-128.00-112.00l0.00-96.00 l0.00-192.00 l0.00-24.00 c0.00-48.531, 38.938-88.00, 94.406-88.00c 55.453,0.00, 100.596,39.469, 100.596,88.00L 323.002,213.501 
	L 323.002,272.00 l0.00,22.499 c0.00,23.69-22.064,43.002-49.175,43.002c-27.095,0.00-49.14-19.312-49.14-43.002l0.00-80.998 c0.00-23.719, 22.045-43.002, 49.14-43.002
	c 4.471,0.00, 8.471,1.251, 12.563,2.221L 286.39,56.00 c0.00-30.874-28.704-56.00-63.984-56.00c-35.296,0.00-57.827,25.126-57.827,56.00l0.00,24.00 L 164.579,272.00 l0.00,96.00 
	c0.00,44.125, 41.015,80.00, 91.421,80.00s 91.437-35.875, 91.437-80.00l0.00-288.00 c0.00-8.845, 8.157-16.00, 18.282-16.00c 10.093,0.00, 18.281,7.155, 18.281,16.00L 384.00,368.00 
	C 384.00,429.75, 326.563,480.00, 256.00,480.00z M 273.827,202.499c-6.922,0.00-12.576,4.938-12.576,11.002l0.00,80.998 c0.00,6.064, 5.654,11.002, 12.576,11.002
	s 12.563-4.938, 12.563-11.002L 286.39,272.00 l0.00-58.499 C 286.391,207.437, 280.749,202.499, 273.827,202.499z"  />
<glyph unicode="&#xe06d;" d="M 197.203,96.00L 96.00,188.874l 46.608,38.438l 54.595-54.50L 369.312,352.00L 416.00,313.594
	L 197.203,96.00z"  />
<glyph unicode="&#xe06e;" d="M 256.00,480.00C 114.624,480.00,0.00,365.376,0.00,224.00s 114.624-256.00, 256.00-256.00s 256.00,114.624, 256.00,256.00S 397.376,480.00, 256.00,480.00z M 224.00,96.00l-96.00,96.00l 49.875,56.25
	L 224.00,198.406L 368.00,352.00l 48.00-51.203L 224.00,96.00z"  />
<glyph unicode="&#xe06f;" d="M 256.00,480.00C 114.624,480.00,0.00,365.376,0.00,224.00s 114.624-256.00, 256.00-256.00s 256.00,114.624, 256.00,256.00S 397.376,480.00, 256.00,480.00z M 256.00,32.00
			c-105.875,0.00-192.00,86.125-192.00,192.00S 150.125,416.00, 256.00,416.00s 192.00-86.125, 192.00-192.00S 361.875,32.00, 256.00,32.00z M 219.968,204.812l-34.563,37.377
			L 148.00,200.016L 219.968,128.00L 364.00,281.594L 328.032,320.00L 219.968,204.812z"  />
<glyph unicode="&#xe070;" d="M 181.32,333.718l0.00-234.407 c-15.642,9.252-34.89,14.97-56.00,14.97c-51.545,0.00-93.312-32.748-93.312-73.126
	c0.00-40.406, 41.767-73.155, 93.312-73.155c 51.562,0.00, 93.329,32.749, 93.329,73.155L 218.649,260.579 l 224.00,109.703l0.00-234.39 
	c-15.626,9.248-34.874,14.969-56.00,14.969c-51.53,0.00-93.345-32.768-93.345-73.142c0.00-40.407, 41.814-73.155, 93.345-73.155
	c 51.562,0.00, 93.344,32.748, 93.344,73.155L 479.993,480.00 L 181.32,333.718z"  />
<glyph unicode="&#xe071;" d="M 512.00,224.00l-64.00,64.00l0.00-32.00 L 288.00,256.00 L 288.00,416.00 l 32.00,0.00 L 256.00,480.00l-64.00-64.00l 32.00,0.00 l0.00-160.00 L 64.00,256.00 l0.00,32.00 L0.00,224.00l 64.00-64.00l0.00,32.00 l 160.00,0.00 l0.00-160.00 
	l-32.00,0.00 l 64.00-64.00l 64.00,64.00l-32.00,0.00 L 288.00,192.00 l 160.00,0.00 l0.00-32.00 L 512.00,224.00z"  />
<glyph unicode="&#xe072;" d="M0.00,352.00l0.00-256.00 l 512.00,0.00 L 512.00,352.00 L0.00,352.00 z M 496.00,112.00L 16.00,112.00 L 16.00,336.00 l 480.00,0.00 L 496.00,112.00 z M 251.501,182.25c-11.702,0.00-22.25,3.814-29.939,8.438l-5.171-18.249
			c 6.905-4.374, 19.002-7.814, 31.078-8.25l0.00-18.562 l 15.936,0.00 l0.00,19.75 c 20.909,3.437, 32.222,17.622, 32.222,33.968
			c0.00,17.28-9.376,27.626-30.877,35.687c-16.499,6.346-23.421,10.938-23.421,18.78c0.00,6.548, 4.797,13.457, 18.233,13.457
			c 13.062,0.00, 21.501-4.406, 26.096-6.72l 5.188,17.655c-6.157,3.078-14.406,6.141-26.471,6.531l0.00,17.658 l-15.75,0.00 l0.00-18.624 
			c-19.373-3.453-30.89-16.314-30.89-32.829c0.00-17.625, 13.235-27.03, 33.203-34.313c 14.374-5.188, 21.095-10.56, 21.095-19.405
			C 272.032,188.188, 263.782,182.25, 251.501,182.25z M 160.00,224.00c0.00,36.189, 7.485,69.187, 19.625,96.00L 32.00,320.00 l0.00-192.00 l 147.625,0.00 
			C 167.469,154.812, 160.00,187.812, 160.00,224.00z M 96.00,192.00c-17.67,0.00-32.00,14.313-32.00,32.00s 14.33,32.00, 32.00,32.00s 32.00-14.313, 32.00-32.00S 113.67,192.00, 96.00,192.00z
			 M 96.00,240.00c-8.829,0.00-16.00-7.188-16.00-16.00s 7.171-16.00, 16.00-16.00s 16.00,7.188, 16.00,16.00S 104.829,240.00, 96.00,240.00z M 416.00,208.00c 8.812,0.00, 16.00,7.188, 16.00,16.00
			s-7.188,16.00-16.00,16.00s-16.00-7.188-16.00-16.00S 407.188,208.00, 416.00,208.00z M 480.00,128.00L 480.00,320.00 L 332.374,320.00 C 344.531,293.187, 352.00,260.189, 352.00,224.00
			c0.00-36.188-7.469-69.188-19.626-96.00L 480.00,128.00 z M 416.00,256.00c 17.687,0.00, 32.00-14.313, 32.00-32.00s-14.313-32.00-32.00-32.00s-32.00,14.313-32.00,32.00S 398.313,256.00, 416.00,256.00
			z"  />
<glyph unicode="&#xe073;" d="M 63.50,256.50l0.00-64.00 l 384.00,0.00 l0.00,64.00 L 63.50,256.50 z"  />
<glyph unicode="&#xe074;" d="M 256.00,480.00C 114.624,480.00,0.00,365.376,0.00,224.00s 114.624-256.00, 256.00-256.00s 256.00,114.624, 256.00,256.00S 397.376,480.00, 256.00,480.00z M 384.00,192.00L 128.00,192.00 l0.00,64.00 l 256.00,0.00 L 384.00,192.00 z"  />
<glyph unicode="&#xe075;" d="M 32.00,0.00l 128.00,64.032L 160.00,448.00 L 32.00,384.016L 32.00,0.00 z M 192.00,64.032L 320.032,0.00L 320.032,384.016 L 192.00,448.00L 192.00,64.032 z M 352.032,384.016L 352.032,0.00 L 480.00,64.032
			L 480.00,448.00 L 352.032,384.016z"  />
<glyph unicode="&#xe076;" d="M 371.251,370.282C 371.251,430.906, 319.626,480.00, 256.032,480.00c-63.626,0.00-115.188-49.094-115.188-109.718
			c0.00-60.595, 115.188-256.093, 115.188-256.093S 371.251,309.687, 371.251,370.282z M 217.658,370.282
			c0.00,20.202, 17.187,36.563, 38.374,36.563c 21.187,0.00, 38.406-16.361, 38.406-36.563c0.00-20.205-17.22-36.563-38.406-36.563
			C 234.845,333.718, 217.658,350.077, 217.658,370.282z M 348.343,241.844c-0.561-0.999-1.092-2.033-1.469-3.031
			c 37.75-20.00, 62.659-51.798, 62.659-87.938c0.00-60.686-68.784-109.748-153.501-109.748c-84.813,0.00-153.626,49.062-153.626,109.748
			c0.00,36.141, 24.938,67.938, 62.812,87.907c-0.562,1.029-1.062,2.063-1.561,3.062C 104.406,217.03, 64.00,169.344, 64.00,114.188
			C 64.00,33.594, 150.156-32.00, 256.032-32.00C 361.875-32.00, 448.00,33.594, 448.00,114.188C 448.00,169.344, 407.687,217.03, 348.343,241.844z"  />
<glyph unicode="&#xe077;" d="M 256.00,447.998c-88.375,0.00-160.00-77.219-160.00-160.00c0.00-44.076, 22.00-64.672, 64.00-139.812c 36.906-65.971, 67.719-125.875, 67.719-125.875
	c 15.283-29.719, 40.346-29.75, 55.657-0.063c0.00,0.00, 31.03,60.00, 68.624,125.938c 42.812,75.14, 64.00,95.719, 64.00,139.812
	C 416.00,370.778, 344.374,447.998, 256.00,447.998z M 256.00,191.997c-52.998,0.00-96.00,42.986-96.00,96.00s 43.002,96.00, 96.00,96.00c 53.03,0.00, 96.00-42.985, 96.00-96.00
	S 309.03,191.997, 256.00,191.997z"  />
<glyph unicode="&#xe078;" d="M0.00-32.00l 96.00,0.00 l0.00,96.00 L0.00,64.00 L0.00-32.00 z M 416.00-32.00l 96.00,0.00 l0.00,96.00 l-96.00,0.00 L 416.00-32.00 z M 256.00,480.00C 114.624,480.00,0.00,372.547,0.00,240.016L0.00,96.00 l 96.00,0.00 L 96.00,240.016 
			C 96.00,319.405, 167.782,384.00, 256.00,384.00s 160.00-64.595, 160.00-143.984L 416.00,96.00 l 96.00,0.00 L 512.00,240.016 C 512.00,372.547, 397.404,480.00, 256.00,480.00z"  />
<glyph unicode="&#xe079;" d="M 335.312,356.89L0.00,21.405L 53.344-32.00L 388.97,303.219L 335.312,356.89z M 257.312,260.985l 78.906,78.922l 35.75-35.798
			l-78.905-78.937L 257.312,260.985z M 469.437,410.563l-26.842,26.842l-53.625-53.67l 26.842-26.845L 469.437,410.563z M 320.812,405.235
			L 307.594,480.00l-37.312-6.595l 13.155-74.765L 320.812,405.235z M 437.251,288.688l-6.563-37.344l 74.717-13.219l 6.596,37.36
			L 437.251,288.688z M 352.812,178.563l 32.093-68.813l 34.346,16.062l-32.032,68.783L 352.812,178.563z M 226.749,355.094L 158.00,387.171
			l-16.064-34.422l 68.752-32.077L 226.749,355.094z"  />
<glyph unicode="&#xe07a;" d="M 415.376,256.00l-31.939,0.00 l 0.656,104.999c0.00,1.891-0.592,3.44-0.842,5.219l 0.842,0.00 C 384.093,429.062, 326.97,480.00, 256.342,480.00
	c-70.531,0.00-127.746-50.938-127.746-113.782l 0.217,0.00 c0.00-0.592-0.217-1.107-0.217-1.703L 127.907,256.00L 95.936,256.00 
	c-17.654,0.00-31.248-16.266-31.248-32.00L 64.00,0.00c0.00-15.719, 14.97-32.00, 32.624-32.00l 319.501,0.00 c 17.594,0.00, 31.187,16.281, 31.187,32.00L 448.00,224.00
	C 448.00,239.734, 432.97,256.00, 415.376,256.00z M 192.25,366.218l 0.217,0.00 c0.00,31.344, 28.721,56.893, 63.875,56.893
	c 35.191,0.00, 63.908-25.549, 63.908-56.893L 319.562,256.00L 191.75,256.00 C 191.75,256.00, 192.25,365.625, 192.25,366.218z M 294.656,36.281l-76.592,0.00 
	l 14.685,87.562c-8.717,6.222-14.685,15.438-14.685,26.222c0.00,18.81, 17.123,38.748, 38.277,38.748c 21.22,0.00, 38.314-19.938, 38.314-38.748
	c0.00-10.784-6.00-20.00-14.749-26.222L 294.656,36.281z"  />
<glyph unicode="&#xe07b;" d="M0.00,448.00l0.00-448.00 l 512.00,0.00 L 512.00,448.00 L0.00,448.00 z M 480.00,32.00L 32.00,32.00 L 32.00,384.00 l 448.00,0.00 L 480.00,32.00 z M 416.00,320.00L 96.00,320.00 l0.00-32.00 l 320.00,0.00 L 416.00,320.00 z M 416.00,256.00
			L 96.00,256.00 l0.00-32.00 l 320.00,0.00 L 416.00,256.00 z M 416.00,192.00L 96.00,192.00 l0.00-32.00 l 320.00,0.00 L 416.00,192.00 z M 416.00,128.00L 96.00,128.00 l0.00-32.00 l 320.00,0.00 L 416.00,128.00 z"  />
<glyph unicode="&#xe07c;" d="M 128.00,448.00l0.00-64.00 l 352.00,0.00 L 480.00,448.00 L 128.00,448.00 z M 128.00,256.00l 352.00,0.00 l0.00,64.00 L 128.00,320.00 L 128.00,256.00 z M 32.00,384.00l 64.00,0.00 L 96.00,448.00 L 32.00,448.00 L 32.00,384.00 z M 32.00,256.00
			l 64.00,0.00 l0.00,64.00 L 32.00,320.00 L 32.00,256.00 z M 32.00,128.00l 64.00,0.00 l0.00,64.00 L 32.00,192.00 L 32.00,128.00 z M 128.00,128.00l 352.00,0.00 l0.00,64.00 L 128.00,192.00 L 128.00,128.00 z M 32.00,0.00l 64.00,0.00 l0.00,64.00 L 32.00,64.00 L 32.00,0.00 z M 128.00,0.00l 352.00,0.00 l0.00,64.00 L 128.00,64.00 L 128.00,0.00 z"  />
<glyph unicode="&#xe07d;" d="M0.00,448.00l0.00-448.00 l 512.00,0.00 L 512.00,448.00 L0.00,448.00 z M 480.00,32.00L 32.00,32.00 L 32.00,384.00 l 448.00,0.00 L 480.00,32.00 z M 192.00,320.00L 96.00,320.00 l0.00-96.00 l 96.00,0.00 L 192.00,320.00 z M 160.00,256.00
			l-32.00,0.00 l0.00,32.00 l 32.00,0.00 L 160.00,256.00 z M 192.00,192.00L 96.00,192.00 l0.00-96.00 l 96.00,0.00 L 192.00,192.00 z M 160.00,128.00l-32.00,0.00 l0.00,32.00 l 32.00,0.00 L 160.00,128.00 z M 416.00,320.00L 224.00,320.00 l0.00-32.00 l 192.00,0.00 L 416.00,320.00 z M 416.00,256.00L 224.00,256.00 l0.00-32.00 l 192.00,0.00 L 416.00,256.00 z M 416.00,192.00
			L 224.00,192.00 l0.00-32.00 l 192.00,0.00 L 416.00,192.00 z M 416.00,128.00L 224.00,128.00 l0.00-32.00 l 192.00,0.00 L 416.00,128.00 z"  />
<glyph unicode="&#xe07e;" d="M 411.251,246.189c-16.249,16.217-35.939,26.56-56.656,32.061c-21.907,5.782-44.845,5.501-66.659-0.813
	c-19.778-5.654-38.56-15.686-54.125-31.248c-20.498-20.531-51.621-23.594-75.621-9.75c-4.656,2.688-9.127,5.778-13.096,9.75
	c-24.47,24.499-24.47,64.217,0.00,88.685c 24.531,24.502, 64.219,24.502, 88.717,0.00c 4.00-3.936, 7.062-8.406, 9.751-13.03
	c 21.814,6.281, 44.752,6.563, 66.688,0.752c-5.501,20.717-15.812,40.403-32.062,56.685c-49.001,48.97-128.438,48.97-177.439,0.00
	c-48.999-49.03-48.999-128.468,0.00-177.469c 16.253-16.218, 35.938-26.56, 56.627-32.061c 21.968-5.751, 44.874-5.469, 66.688,0.78
	c 19.811,5.658, 38.56,15.719, 54.124,31.28c 20.531,20.531, 51.654,23.626, 75.654,9.722c 4.596-2.659, 9.095-5.75, 13.062-9.722
	c 24.471-24.499, 24.471-64.218,0.00-88.685c-24.467-24.503-64.218-24.503-88.717,0.00c-4.00,3.936-7.062,8.406-9.75,13.03
	c-21.814-6.25-44.752-6.531-66.688-0.752c 5.501-20.717, 15.812-40.406, 32.061-56.685c 49.002-48.97, 128.439-48.97, 177.44,0.00
	C 460.25,117.75, 460.25,197.187, 411.251,246.189z"  />
<glyph unicode="&#xe07f;" d="M 512.00,319.501L 256.00,480.00L0.00,320.00l 256.00-160.00L 512.00,319.501z M 256.00,122.281L 47.187,252.765L0.00,223.296L 256.00,63.28l 256.00,159.517
			l-47.219,29.594L 256.00,122.281z M 256.00,25.562L 46.064,156.749L0.00,128.00l 256.00-160.00l 256.00,159.501l-46.064,28.873L 256.00,25.562z"  />
<glyph unicode="&#xe080;" d="M 160.00,242.906C 152.125,278.813, 118.281,304.00, 80.00,304.00c-44.189,0.00-80.00-35.811-80.00-80.00c0.00-44.188, 35.811-80.00, 80.00-80.00
	c 39.127,0.00, 73.062,26.905, 80.00,64.00l 224.00,0.00 l0.00-32.00 l 32.00,0.00 l0.00,32.00 l 32.00,0.00 l0.00-64.00 l 32.00,0.00 l0.00,64.00 l 32.00,0.00 l0.00,34.906 L 160.00,242.906 z M 80.00,176.00c-26.467,0.00-48.00,21.533-48.00,48.00s 21.533,48.00, 48.00,48.00
	c 26.467,0.00, 48.00-21.533, 48.00-48.00S 106.467,176.00, 80.00,176.00z"  />
<glyph unicode="&#xe081;" d="M 289.126,12.218L 286.032,0.00L 128.00,0.00 l 3.968,12.218c 15.843,0.438, 26.346,2.00, 31.437,4.627c 8.282,3.75, 14.439,8.938, 18.406,15.529
	c 6.222,10.346, 12.628,28.845, 19.252,55.501l 66.812,270.25c 5.687,22.499, 8.499,39.437, 8.499,50.874c0.00,5.75-1.248,10.595-3.654,14.563
	c-2.47,3.939-6.188,7.001-11.187,9.062c-5.034,2.125-14.784,3.158-29.344,3.158L 235.625,448.00L 384.00,448.00 l-3.126-12.218
	c-12.062,0.218-21.031-1.344-26.906-4.627c-8.467-4.406-14.966-10.688-19.373-18.842c-4.47-8.125-10.156-26.188-17.158-54.188
	l-66.53-270.25c-6.033-24.877-9.062-40.749-9.062-47.562c0.00-5.501, 1.158-10.188, 3.532-14.063c 2.374-3.844, 6.157-6.813, 11.312-8.906
	C 261.875,15.251, 272.72,13.533, 289.126,12.218z"  />
<glyph unicode="&#xe082;" d="M 256.00,480.00C 114.624,480.00,0.00,365.392,0.00,224.00c0.00-141.376, 114.624-256.00, 256.00-256.00s 256.00,114.624, 256.00,256.00C 512.00,365.392, 397.376,480.00, 256.00,480.00z
	 M 299.126,92.093c-29.75-39.812-66.438-57.529-79.722-57.529c-13.279,0.00-18.966,17.062-10.125,59.437
	c 9.502,48.72, 22.158,107.546, 29.751,145.484c 1.876,8.857, 0.595,13.92-2.531,13.92c-6.966,0.00-18.998-6.966-34.186-18.966
	c0.00,0.00-1.875,0.608-1.875,1.875c-1.283,3.812, 1.248,14.548, 2.531,16.451c 25.28,25.939, 63.875,51.859, 79.654,51.859
	c 8.25,0.00, 10.125-15.155, 3.814-44.266C 280.125,226.189, 258.00,130.688, 254.189,100.97c-1.252-11.408, 0.655-16.438, 6.342-16.438
	c 8.218,0.00, 20.218,8.218, 38.595,27.812c0.00,0.00, 1.876-0.624, 1.876-1.904C 301.626,107.28, 300.374,95.251, 299.126,92.093z
	 M 295.936,364.733c-4.435-2.544-25.312-4.419-28.435-1.904c-6.346,3.795-9.501,10.125-10.125,21.514
	c 0.624,5.062, 3.155,14.547, 5.687,17.722c 6.313,6.294, 19.562,11.373, 30.374,11.373c 8.813,0.00, 13.875-2.531, 15.188-4.423
	c 2.502-3.795, 3.75-11.389, 3.126-17.078C 310.499,379.907, 303.562,369.782, 295.936,364.733z"  />
<glyph unicode="&#xe083;" d="M 96.00,384.00l 160.00,0.00 L 256.00,448.00 L 96.00,448.00 L 96.00,384.00 z M 64.00,256.00l 192.00,0.00 l0.00,64.00 L 64.00,320.00 L 64.00,256.00 z M 32.00,128.00l 224.00,0.00 l0.00,64.00 L 32.00,192.00 L 32.00,128.00 z M0.00,0.00l 256.00,0.00 l0.00,64.00 L0.00,64.00 L0.00,0.00 z M 288.00,0.00l 32.00,0.00 L 320.00,448.00 l-32.00,0.00 L 288.00,0.00 z
			 M 416.00,256.00l0.00,32.00 l-64.00-64.00l 64.00-64.00l0.00,32.00 l 96.00,0.00 l0.00,64.00 L 416.00,256.00 z"  />
<glyph unicode="&#xe084;" d="M 416.00,448.00L 256.00,448.00 l0.00-64.00 l 160.00,0.00 L 416.00,448.00 z M 448.00,320.00L 256.00,320.00 l0.00-64.00 l 192.00,0.00 L 448.00,320.00 z M 480.00,192.00L 256.00,192.00 l0.00-64.00 l 224.00,0.00 L 480.00,192.00 z M 256.00,64.00l0.00-64.00 l 256.00,0.00 l0.00,64.00 L 256.00,64.00 z M 192.00,0.00l 32.00,0.00 L 224.00,448.00 l-32.00,0.00 
			L 192.00,0.00 z M 96.00,256.00L0.00,256.00 l0.00-64.00 l 96.00,0.00 l0.00-32.00 l 64.00,64.00l-64.00,64.00L 96.00,256.00 z"  />
<glyph unicode="&#xe085;" d="M 448.125,480.00L 448.00,479.968L 448.00,480.00 L 64.499,480.00 l0.00-0.125 L 63.875,480.00L0.00,160.00l0.00-192.00 l 512.00,0.00 L 512.00,158.998 L 448.125,480.00z M 33.187,159.501L 90.189,448.00l 331.653,0.00 
			l 57.002-288.499L 33.187,159.501 z M 96.00,192.00l 320.00,0.00 l0.00,32.00 L 96.00,224.00 L 96.00,192.00 z M 400.00,288.00L 112.00,288.00 l0.00-32.00 l 288.00,0.00 L 400.00,288.00 z M 384.00,352.00L 128.00,352.00 l0.00-32.00 l 256.00,0.00 L 384.00,352.00 z M 368.00,416.00L 144.00,416.00 l0.00-32.00 l 224.00,0.00 L 368.00,416.00 z"  />
<glyph unicode="&#xe086;" d="M 448.125,480.00L 448.00,479.968L 448.00,480.00 L 64.499,480.00 l0.00-0.125 L 63.875,480.00L0.00,160.00l0.00-192.00 l 512.00,0.00 L 512.00,158.998 L 448.125,480.00z M 320.00,96.00c0.00-17.687-14.313-32.00-32.00-32.00l-64.00,0.00 
	c-17.687,0.00-32.00,14.313-32.00,32.00l0.00,63.501 L 33.187,159.501 L 90.189,448.00l 331.653,0.00 l 57.002-288.499L 320.00,159.501 L 320.00,96.00 z"  />
<glyph unicode="&#xe087;" d="M0.00,224.00L 256.00,448.00l 128.00-128.00L 384.00,416.00 l 64.00,0.00 l0.00-128.00 l 64.00-64.00l-64.00,0.00 l0.00-224.00 L 320.00,0.00 L 320.00,224.00 L 192.00,224.00 l0.00-224.00 L 64.00,0.00 L 64.00,224.00 L0.00,224.00 z"  />
<glyph unicode="&#xe088;" d="M 352.00,416.00c-38.438,0.00-72.531-17.312-96.00-44.157C 232.531,398.688, 198.438,416.00, 160.00,416.00C 89.312,416.00, 32.00,358.688, 32.00,288.00
	c0.00-160.00, 224.00-256.00, 224.00-256.00s 224.00,96.00, 224.00,256.00C 480.00,358.688, 422.688,416.00, 352.00,416.00z"  />
<glyph unicode="&#xe089;" d="M 352.00,416.00c-38.438,0.00-72.531-17.312-96.00-44.157C 232.531,398.688, 198.438,416.00, 160.00,416.00C 89.312,416.00, 32.00,358.688, 32.00,288.00
	c0.00-160.00, 224.00-256.00, 224.00-256.00s 224.00,96.00, 224.00,256.00C 480.00,358.688, 422.688,416.00, 352.00,416.00z M 256.032,67.344C 211.438,89.437, 64.00,171.28, 64.00,288.00
	c0.00,52.938, 43.062,96.00, 96.00,96.00c 27.625,0.00, 53.188-11.798, 71.907-33.219L 256.00,323.219l 24.093,27.562C 298.812,372.202, 324.343,384.00, 352.00,384.00
	c 52.938,0.00, 96.00-43.062, 96.00-96.00C 448.00,170.874, 300.656,89.344, 256.032,67.344z"  />
<glyph unicode="&#xe08a;" d="M 452.188,196.757C 442.97,301.602, 358.563,384.008, 256.00,384.008c-102.562,0.00-186.999-82.406-196.189-187.251
	C 43.782,182.93, 32.00,164.523, 32.00,143.147c0.00-45.872, 53.517-79.155, 89.594-79.155c 19.094,0.00, 35.562,9.718, 46.391,27.251
	c 8.611,13.968, 13.344,32.406, 13.344,51.937c0.00,46.595-24.547,79.158-59.734,79.158c-8.845,0.00-18.749-2.048-28.656-5.751
	c 16.781,78.999, 83.469,138.25, 163.062,138.25c 79.626,0.00, 146.313-59.251, 163.062-138.266c-9.907,3.719-19.812,5.767-28.656,5.767
	c-19.095,0.00-35.562-9.674-46.406-27.252c-8.596-13.951-13.344-32.374-13.344-51.906c0.00-46.593, 24.562-79.188, 59.75-79.188
	c 36.061,0.00, 89.594,33.283, 89.594,79.155C 480.00,164.523, 468.188,182.945, 452.188,196.757z"  />
<glyph unicode="&#xe08b;" d="M 452.188,196.757C 442.97,301.602, 358.563,384.008, 256.00,384.008c-102.562,0.00-186.999-82.406-196.189-187.251
	C 43.782,182.93, 32.00,164.523, 32.00,143.147c0.00-45.872, 53.517-79.155, 89.594-79.155c 19.094,0.00, 35.562,9.718, 46.391,27.251
	c 8.611,13.968, 13.344,32.406, 13.344,51.937c0.00,46.595-24.547,79.158-59.734,79.158c-8.845,0.00-18.749-2.048-28.656-5.751
	c 16.781,78.999, 83.469,138.25, 163.062,138.25c 79.626,0.00, 146.313-59.251, 163.062-138.266c-9.907,3.719-19.812,5.767-28.656,5.767
	c-19.095,0.00-35.562-9.674-46.406-27.252c-8.596-13.951-13.344-32.374-13.344-51.906c0.00-46.593, 24.562-79.188, 59.75-79.188
	c 36.061,0.00, 89.594,33.283, 89.594,79.155C 480.00,164.523, 468.188,182.945, 452.188,196.757z M 121.594,193.163
	c 21.923,0.00, 29.875-29.888, 29.875-49.983c0.00-14.094-3.296-27.53-9.062-36.874c-8.093-13.126-17.657-13.126-20.812-13.126
	c-22.50,0.00-59.734,23.376-59.734,49.968c0.00,7.408, 3.03,14.438, 7.642,20.893c 4.954,6.922, 11.843,12.967, 19.469,17.812
	C 99.875,188.772, 112.016,193.163, 121.594,193.163z M 390.406,93.18c-21.907,0.00-29.875,29.875-29.875,50.00
	c0.00,14.063, 3.312,27.532, 9.062,36.86c 8.093,13.123, 17.657,13.123, 20.812,13.123c 9.594,0.00, 21.751-4.406, 32.656-11.328
	c 7.594-4.828, 14.499-10.873, 19.437-17.795c 4.596-6.454, 7.626-13.484, 7.626-20.893C 450.125,116.556, 412.905,93.18, 390.406,93.18z"  />
<glyph unicode="&#xe08c;" d="M 452.188,260.749C 442.97,365.594, 358.563,448.00, 256.00,448.00C 153.438,448.00, 69.001,365.594, 59.811,260.749
	C 43.782,246.938, 32.00,228.531, 32.00,207.155C 32.00,161.28, 85.501,128.00, 121.594,128.00c 19.094,0.00, 35.562,9.719, 46.406,27.251
	c 8.596,13.968, 13.312,32.406, 13.312,51.937c0.00,46.595-24.531,79.155-59.719,79.155c-8.845,0.00-18.749-2.061-28.656-5.747
	C 109.719,359.594, 176.406,418.845, 256.00,418.845c 79.626,0.00, 146.313-59.251, 163.062-138.282c-9.907,3.719-19.812,5.779-28.656,5.779
	c-19.095,0.00-35.562-9.686-46.406-27.249c-8.596-13.967-13.344-32.373-13.344-51.906c0.00-42.017, 20.063-72.406, 49.782-78.017
	c-15.095-22.905-32.25-42.732-52.656-54.326C 319.155,87.609, 304.563,96.00, 288.00,96.00c-26.499,0.00-48.00-21.501-48.00-48.00s 21.501-48.00, 48.00-48.00
	c 24.812,0.00, 45.002,18.938, 47.501,43.095c 38.938,18.562, 66.749,57.50, 86.342,91.858C 451.344,146.938, 480.00,173.594, 480.00,207.155
	C 480.00,228.531, 468.188,246.938, 452.188,260.749z M 121.594,257.155c 21.907,0.00, 29.875-29.876, 29.875-49.968
	c0.00-14.093-3.279-27.53-9.062-36.874c-8.093-13.126-17.657-13.126-20.812-13.126c-22.50,0.00-59.719,23.376-59.719,49.968
	c0.00,7.408, 2.999,14.438, 7.626,20.909c 4.938,6.905, 11.843,12.934, 19.469,17.779C 99.875,252.781, 112.00,257.155, 121.594,257.155z
	 M 430.281,173.594c-9.907-7.937-21.875-13.578-32.346-15.529c-2.624-0.487-5.187-0.877-7.529-0.877
	c-21.907,0.00-29.875,29.875-29.875,50.00c0.00,14.063, 3.312,27.533, 9.062,36.845c 8.093,13.123, 17.657,13.123, 20.812,13.123
	c 9.594,0.00, 21.751-4.406, 32.656-11.312c 7.594-4.846, 14.499-10.874, 19.437-17.779c 4.596-6.471, 7.626-13.501, 7.626-20.909
	C 450.125,194.483, 441.562,182.624, 430.281,173.594z"  />
<glyph unicode="&#xe08d;" d="M 480.00,207.155c0.00,21.376-11.812,39.782-27.812,53.594C 442.97,365.594, 358.563,448.00, 256.00,448.00
	C 153.438,448.00, 69.001,365.594, 59.811,260.749C 43.782,246.938, 32.00,228.531, 32.00,207.155C 32.00,161.28, 85.501,128.00, 121.594,128.00
	c 19.094,0.00, 35.562,9.719, 46.406,27.251c 8.596,13.968, 13.312,32.406, 13.312,51.937c0.00,46.595-24.531,79.155-59.719,79.155
	c-8.845,0.00-18.749-2.061-28.656-5.747C 109.719,359.594, 176.406,418.845, 256.00,418.845c 79.626,0.00, 146.313-59.251, 163.062-138.282
	c-9.907,3.719-19.812,5.779-28.656,5.779c-19.095,0.00-35.562-9.686-46.406-27.249c-8.596-13.967-13.344-32.373-13.344-51.906
	c0.00-42.017, 20.063-72.406, 49.782-78.017c-15.095-22.905-32.188-42.841-52.627-54.374C 319.188,87.577, 304.563,96.00, 288.00,96.00
	c-26.499,0.00-48.00-21.501-48.00-48.00s 21.501-48.00, 48.00-48.00c 24.812,0.00, 44.97,18.905, 47.501,43.03c 38.938,18.563, 66.749,57.549, 86.342,91.923
	C 451.344,146.938, 480.00,173.594, 480.00,207.155z"  />
<glyph unicode="&#xe08e;" d="M 448.499,448.00L 64.016,448.00 L 32.00,159.968L 32.00,0.00 l 448.00,0.00 L 480.00,159.968 L 448.499,448.00z M 448.00,32.00L 64.016,32.00 
			l0.00,95.968 L 448.00,127.968 L 448.00,32.00 z M 111.984,64.032L 400.00,64.032 c 8.874,0.00, 15.968,7.094, 15.968,15.968c0.00,8.845-7.094,16.032-15.968,16.032L 111.984,96.032 
			c-8.813,0.00-16.00-7.188-16.00-16.032C 95.984,71.126, 103.171,64.032, 111.984,64.032z"  />
</font>
</defs>
</svg>
